<?xml  version="1.0" encoding="UTF-8"?>
<!DOCTYPE svg PUBLIC "-//W3C//DTD SVG 1.0//EN" "http://www.w3.org/TR/2001/REC-SVG-20010904/DTD/svg10.dtd" >
<svg xmlns="http://www.w3.org/2000/svg" >
<metadata>
<version>1.0</version>
<id><![CDATA[Sackers Gothic W01 Light]]></id>
<vendor>Monotype Imaging Inc.</vendor>
<credits>
<name>Fonts.com WebFonts</name>
<URL>http://webfonts.fonts.com</URL>
<role>Home of the Web fonts</role>
</credits>
<license>
<URL>http://webfonts.fonts.com/Legal</URL>
</license>
<copyright><![CDATA[Copyright 1994, 2003 Monotype Imaging, Inc. All rights reserved.]]></copyright>
<trademark><![CDATA["Sackers" is a trademark of Monotype Imaging, Inc. and may be registered in certain jurisdictions.]]></trademark>
<licensee>
<name></name>
</licensee>
</metadata>
<defs >
<font horiz-adv-x="719" id="b3e01acf-acc5-4cc3-aef6-d05b5bf3e24a">
<font-face font-family="" panose-1="2 11 3 4 2 2 2 6 2 4" ascent="1029" descent="-250" units-per-em="1000" alphabetic="0">
</font-face>
<missing-glyph horiz-adv-x="0" />

<glyph unicode="&#xA;" />
<glyph unicode="&#xD;" />
<glyph unicode=" " horiz-adv-x="370" />
<glyph unicode="!" horiz-adv-x="333" d="M194 178H141L123 747H213L194 178ZM231 46Q231 20 213 2T168 -17Q142 -17 124 1T105 46Q105 72 123 91T168 110Q195 110 213 91T231 46Z"  />
<glyph unicode="&quot;" horiz-adv-x="462" d="M336 504H291L269 757H358L336 504ZM171 504H126L104 757H193L171 504Z"  />
<glyph unicode="#" horiz-adv-x="672" d="M633 417H498L445 271H579L558 214H423L345 -1H286L364 214H202L124 -1H66L144 214H9L30 271H165L219 417H84L105 474H240L305 652H364L299 474H460L525 652H584L519 474H654L633 417ZM278 417L223 271H385L439 417H278Z"  />
<glyph unicode="$" horiz-adv-x="889" d="M777 188Q777 144 759 112T712 57T646 19T572 -4Q559 -7 544 -9T513 -12T486 -15T466 -16V-83H412V-16Q367 -16 324 -9T238 12Q210 21 188 31T146 55T107 84T66 119L112 168Q179 106 250 78T412 50V308H353Q314 308 273 315T197 341T140 391T118 469Q118 506 133 536T172 589T227 628T290 653Q347 668 406 668H412V750H466V668Q547 668 610 645T738 575L695 521Q644 557 586 577T466 601V375H522Q560 375 604 365T687 332T751 274T777 188ZM412 602Q382 600 344 595T273 575T216 537T192 472Q192 444 206 426T242 397T292 382T346 377H412V602ZM701 189Q701 224 684 247T639 283T581 302T521 308H466V52Q498 52 538 57T615 77T676 119T701 189Z"  />
<glyph unicode="%" horiz-adv-x="1204" d="M1147 193Q1147 143 1126 105T1071 40T992 -1T902 -15Q856 -15 812 -1T734 39T678 104T656 193Q656 242 677 281T733 346T812 386T902 400Q947 400 991 386T1069 346T1125 281T1147 193ZM372 -39H291L845 718H926L372 -39ZM546 461Q546 411 525 373T470 308T391 267T301 253Q255 253 211 267T133 307T77 372T55 461Q55 510 76 549T132 614T211 654T301 668Q346 668 390 654T468 614T524 549T546 461ZM1073 193Q1073 226 1059 252T1020 297T966 326T902 336Q869 336 838 326T784 298T746 253T731 193Q731 159 745 133T783 88T838 60T902 50Q935 50 966 59T1020 87T1058 132T1073 193ZM472 461Q472 494 458 520T419 565T365 594T301 604Q268 604 238 594T183 566T145 521T130 461Q130 427 144 401T182 356T237 328T301 318Q334 318 364 327T419 355T457 400T471 461H472Z"  />
<glyph unicode="&amp;" horiz-adv-x="870" d="M698 0Q679 17 661 34T624 70Q564 26 504 4T369 -19Q322 -19 272 -7T179 31T110 97T83 192Q83 237 100 270T147 328T213 368T288 395Q275 408 262 422T239 451T221 483T214 520Q214 560 236 588T290 634T361 660T431 669Q463 669 488 666T535 657T580 641T632 617L603 556Q578 568 558 576T517 589T476 596T426 599Q409 599 385 595T338 582T299 558T282 521Q282 511 287 502T299 483T314 466T329 452L625 164Q642 179 655 193T680 223T702 255T725 292L783 255Q758 214 733 182T676 115L794 0H698ZM344 339Q316 333 283 323T220 297T172 256T152 195Q152 154 174 127T230 82T301 58T372 50Q433 50 479 66T573 120L344 339Z"  />
<glyph unicode="&apos;" horiz-adv-x="333" d="M194 504H149L127 757H216L194 504Z"  />
<glyph unicode="(" horiz-adv-x="426" d="M347 734Q322 716 291 680T233 596T187 490T168 371Q168 313 186 257T230 151T287 65T340 10L307 -20Q263 16 225 60T158 155T113 261T96 374Q96 432 113 489T160 597T232 691T322 765L347 734H347Z"  />
<glyph unicode=")" horiz-adv-x="426" d="M327 371Q327 313 310 256T263 148T191 54T101 -20L76 11Q101 29 132 65T190 149T236 255T255 374Q255 432 237 488T193 594T136 680T83 735L116 765Q159 729 197 685T265 590T310 484T327 371Z"  />
<glyph unicode="*" horiz-adv-x="593" d="M444 456L322 525V385H277V525L151 454L127 494L252 565L129 635L151 674L276 605V747H321V605L442 675L466 635L342 565L466 495L444 456Z"  />
<glyph unicode="+" horiz-adv-x="889" d="M473 202V0H416V202H214V259H416V461H473V259H675V202H473Z"  />
<glyph unicode="&#x2c;" horiz-adv-x="389" d="M296 0Q296 -29 289 -51T270 -91T242 -123T209 -151Q205 -154 197 -159T185 -165Q180 -165 175 -159T170 -146Q170 -141 177 -137T188 -130Q198 -123 209 -113T228 -90T242 -65T248 -39Q248 -25 238 -20T214 -15Q188 -15 172 4T155 50Q155 73 173 87T213 102Q232 102 247 93T274 70T290 37T296 0Z"  />
<glyph unicode="-" horiz-adv-x="610" d="M140 221V292H470V221H140Z"  />
<glyph unicode="." horiz-adv-x="370" d="M249 46Q249 20 230 2T185 -17Q159 -17 140 1T121 46Q121 72 139 91T184 110Q211 110 230 91T249 46Z"  />
<glyph unicode="/" horiz-adv-x="630" d="M113 -20H46L491 747H558L113 -20Z"  />
<glyph unicode="0" horiz-adv-x="889" d="M831 327Q831 244 800 181T715 73T592 7T445 -16Q371 -16 302 6T178 72T92 178T59 321Q59 407 88 472T168 580T288 646T439 668Q515 668 586 646T711 580T798 473T831 327ZM762 328Q762 398 735 449T663 533T558 583T436 600Q376 600 320 582T222 530T154 445T128 330Q128 262 153 210T222 123T323 71T444 53Q507 53 564 70T666 122T736 208T762 328Z"  />
<glyph unicode="1" horiz-adv-x="593" d="M263 0V654H330V0H263Z"  />
<glyph unicode="2" horiz-adv-x="889" d="M147 0Q146 8 146 16T145 32Q145 93 163 151T215 254T300 330T415 367L568 382Q589 384 608 390T643 409T668 438T677 479Q677 516 655 540T600 577T532 596T467 602Q428 602 394 598T327 585T264 562T198 529L166 589Q203 610 237 625T308 651T381 666T462 671Q507 671 557 662T649 631T718 572T746 480Q746 439 730 409T688 357T627 324T555 309Q525 307 495 305T435 301Q387 298 349 279T282 228T238 156T217 69H747V0H147Z"  />
<glyph unicode="3" horiz-adv-x="889" d="M796 185Q796 143 778 112T729 58T661 21T582 -2T502 -13T431 -16Q337 -16 249 8Q226 14 207 21T171 37T136 56T99 81L135 139Q205 92 275 72T430 52Q462 52 493 54T556 62Q578 66 607 74T664 96T709 131T728 181Q728 220 702 245T639 283T562 302T493 307H404V377H493Q519 377 552 381T614 398T664 431T684 487Q684 509 670 526T636 555T594 575T554 587Q507 597 454 597Q416 597 386 593T326 581T269 561T207 532L176 592Q216 613 248 627T311 650T376 661T456 665Q525 665 588 649Q617 641 646 628T698 594T737 548T752 487Q752 439 726 405T661 347Q688 336 712 322T755 287T785 242T796 185Z"  />
<glyph unicode="4" horiz-adv-x="889" d="M650 174V0H582V174H109L75 252L582 654H650V244H816V174H650ZM582 564L180 244H582V564Z"  />
<glyph unicode="5" horiz-adv-x="889" d="M785 208Q785 167 769 135T725 77T664 34T594 6Q555 -6 515 -11T434 -16Q343 -16 263 7T106 78L144 133Q186 110 219 95T286 70T355 56T440 52Q496 52 550 64Q575 70 604 81T658 110T699 152T716 207Q716 249 691 277T628 323T549 348T474 356Q432 356 396 350T324 334T254 308T182 276L136 312V654H731V586H204V363Q243 378 275 389T339 408T404 420T480 424Q514 424 547 420T612 404Q645 393 676 375T731 333T770 277T785 208Z"  />
<glyph unicode="6" horiz-adv-x="889" d="M809 199Q809 158 789 126T739 69T671 27T600 1Q567 -8 534 -12T466 -16Q391 -16 321 5T196 69T110 173T77 318Q77 398 111 462T202 572T331 642T478 667Q526 667 564 661T636 641T705 609T780 565L741 511Q679 551 619 575T483 599Q418 599 358 580T250 525T175 434T145 310Q156 317 167 324T190 337Q255 372 334 388T487 404Q522 404 556 400T624 387Q658 378 691 363T750 324T793 269T809 199ZM740 202Q740 228 726 248T689 284T642 309T596 324Q567 331 537 334T478 337Q392 337 310 311T159 234Q179 185 210 151T282 94T368 62T466 52Q495 52 523 55T579 65Q602 71 630 82T682 111T723 150T740 202Z"  />
<glyph unicode="7" horiz-adv-x="889" d="M315 0H230L659 586H141V654H712L750 595L315 0Z"  />
<glyph unicode="8" horiz-adv-x="889" d="M796 182Q796 139 779 108T734 54T670 19T595 -3T518 -13T447 -16Q416 -16 378 -13T300 -3T223 19T156 55T109 108T91 181Q91 212 102 239T133 287T177 323T230 349Q190 373 166 407T142 490Q142 548 173 583T250 637T349 662T446 669Q475 669 509 667T577 657T642 638T697 606T735 558T749 491Q749 442 725 407T659 349Q686 337 711 322T755 286T785 241T796 182ZM682 487Q682 514 669 533T633 564T583 584T527 595T473 600T429 601Q402 601 365 597T293 581T234 546T210 486Q210 448 238 427T306 396T387 383T453 380Q470 380 493 381T542 386T593 397T638 416T670 445T682 487ZM728 180Q728 210 712 231T669 267T610 290T544 303T481 309T431 311Q412 311 384 309T326 303T266 289T213 266T174 231T159 183Q159 154 175 133T217 98T275 74T339 61T401 55T450 53Q470 53 498 54T557 60T618 73T673 95T713 130T728 180Z"  />
<glyph unicode="9" horiz-adv-x="889" d="M809 335Q809 253 774 188T682 78T551 8T402 -17Q357 -17 320 -11T248 8T181 39T109 81L148 136Q182 115 211 99T270 73T332 57T406 51Q470 51 530 71T638 129T713 222T741 346Q663 295 577 271T396 247Q349 247 294 256T190 289T110 351T77 449Q77 491 97 524T148 582T217 624T290 651Q324 660 358 664T427 668Q501 668 570 646T692 581T777 476T809 335ZM725 423Q706 469 675 502T605 558T521 590T427 600Q371 600 317 588Q292 582 262 571T206 542T162 500T144 445Q144 420 158 401T193 367T238 343T282 328Q309 321 337 318T393 315Q432 315 478 321T569 341T655 375T725 423Z"  />
<glyph unicode=":" horiz-adv-x="370" d="M248 428Q248 402 230 384T185 365Q159 365 141 383T122 428Q122 455 141 473T186 491Q212 491 230 473T248 428ZM246 46Q246 20 228 2T184 -17Q158 -17 140 1T122 45Q122 71 140 89T184 108Q210 108 228 90T246 46Z"  />
<glyph unicode=";" horiz-adv-x="389" d="M248 428Q248 402 230 384T185 365Q159 365 141 383T122 428Q122 455 141 473T186 491Q212 491 230 473T248 428ZM263 0Q263 -29 256 -51T237 -91T209 -123T176 -151Q172 -154 164 -159T152 -165Q147 -165 142 -159T137 -146Q137 -141 144 -137T155 -130Q165 -123 176 -113T195 -90T209 -65T215 -39Q215 -25 205 -20T181 -15Q155 -15 139 4T122 50Q122 73 140 87T180 102Q199 102 214 93T241 70T257 37T263 0Z"  />
<glyph unicode="&lt;" horiz-adv-x="889" d="M237 200V261L652 443V380L309 231L652 81V18L237 200Z"  />
<glyph unicode="=" horiz-adv-x="889" d="M214 272V329H675V272H214ZM214 132V189H675V132H214Z"  />
<glyph unicode="&gt;" horiz-adv-x="889" d="M237 18V81L580 230L237 380V443L652 261V200L237 18Z"  />
<glyph unicode="?" horiz-adv-x="556" d="M480 575Q480 513 449 469T371 390L270 313Q256 302 251 288T246 257V182H180V257Q180 285 183 301T192 328T206 345T223 359L328 440Q362 467 383 496T404 570Q404 611 389 636T348 674T290 692T223 696Q178 696 139 690T56 672V742Q99 753 143 757T232 761Q279 761 324 753T403 723T459 666T480 575ZM277 46Q277 20 258 2T213 -17Q187 -17 169 1T150 46Q150 72 168 91T213 110Q239 110 258 91T277 46Z"  />
<glyph unicode="@" horiz-adv-x="1044" d="M960 337Q960 286 943 247T899 180T839 139T772 125Q721 125 688 147T643 195Q626 169 591 152T497 135Q470 135 442 141T392 161T355 197T341 253Q341 296 361 319T413 353T481 366T549 368H627Q627 382 626 393T620 417Q609 442 581 449T526 457Q511 457 495 455T465 447T441 430T426 401H362Q367 437 384 458T426 491T480 506T536 510Q621 510 658 471T695 347V246Q695 220 715 199T773 177Q797 177 819 187T857 217T884 267T894 339Q894 417 863 475T778 573T656 632T512 652Q441 652 376 631T262 568T182 467T152 329Q152 248 182 186T263 83T380 20T521 -2Q561 -2 592 3T647 17T689 35T721 56L757 8Q740 -6 718 -19T667 -42T602 -58T522 -65Q438 -65 359 -39T219 36T121 157T84 319Q84 417 116 491T207 615T344 690T515 715Q607 715 688 693T829 624T925 506T960 337ZM627 316H556Q536 316 515 316T474 314Q442 312 423 299T404 251Q404 233 412 221T434 202T465 192T498 189Q555 189 591 215T627 302V316Z"  />
<glyph unicode="A" horiz-adv-x="833" d="M739 0L608 266H226L95 0H19L384 746H453L815 0H739ZM419 660L260 334H577L419 660Z"  />
<glyph unicode="B" horiz-adv-x="907" d="M806 207Q806 159 786 117T727 45Q688 14 649 7T562 0H123V745H562Q605 745 643 731T710 690T755 627T772 545Q772 494 752 458T697 388Q748 358 777 313T806 207ZM704 546Q704 609 663 642T562 676H191V416H562Q592 416 617 424T662 449T693 490T704 546ZM737 207Q737 246 723 272T684 315T628 339T562 347H191V69H562Q599 69 631 73T692 104Q715 124 726 151T737 207Z"  />
<glyph unicode="C" horiz-adv-x="926" d="M851 136Q772 62 684 23T487 -17Q404 -17 331 12T203 92T117 215T85 372Q85 459 116 531T203 654T332 733T491 762Q599 762 685 729T848 617L802 568Q737 634 664 664T497 694Q425 694 363 672T254 607T180 506T153 372Q153 301 180 242T253 141T360 76T491 52Q584 52 660 88T804 186L851 136H851Z"  />
<glyph unicode="D" horiz-adv-x="926" d="M835 374Q835 290 807 222T730 104T616 27T475 0H122V746H475Q556 746 622 720T736 644T809 527T835 374ZM766 372Q766 447 744 504T683 600T591 658T475 678H191V68H475Q534 68 587 87T679 144T742 239T766 372Z"  />
<glyph unicode="E" horiz-adv-x="852" d="M133 0V745H748V675H200V419H499V351H200V68H772V0H133Z"  />
<glyph unicode="F" horiz-adv-x="779" d="M200 677V406H544V337H200V0H133V745H742V677H200Z"  />
<glyph unicode="G" horiz-adv-x="907" d="M822 201Q822 159 803 125T753 66T685 23T611 -3Q549 -18 485 -18Q400 -18 325 10T194 89T106 212T73 372Q73 457 106 528T196 651T330 732T494 761Q596 761 672 725T804 626L760 577Q710 630 647 661T494 693Q418 693 354 668T242 598T169 496T142 371Q142 296 169 237T244 136T355 73T490 51Q542 51 590 63Q613 69 641 80T695 108T737 148T754 200V330H485V398H822V201H822Z"  />
<glyph unicode="H" horiz-adv-x="1000" d="M761 0V355H240V0H172V746H240V422H761V746H828V0H761Z"  />
<glyph unicode="I" horiz-adv-x="370" d="M154 0V745H220V0H154Z"  />
<glyph unicode="J" horiz-adv-x="815" d="M682 290Q682 214 659 157T592 61T489 3T355 -17Q293 -17 237 -3T132 54Q98 83 80 114T43 186L101 216Q115 191 128 167T161 122Q198 80 249 65T354 50Q413 50 461 64T543 108T595 183T614 290V746H682V290H682Z"  />
<glyph unicode="K" horiz-adv-x="833" d="M701 0L419 422L191 195V0H122V745H191V291L648 745H743L470 473L783 0H701Z"  />
<glyph unicode="L" horiz-adv-x="722" d="M128 0V745H196V69H683V0H128Z"  />
<glyph unicode="M" horiz-adv-x="1037" d="M820 0V612L518 105L217 612V0H150V746H217L518 237L823 746H888V0H820Z"  />
<glyph unicode="N" horiz-adv-x="981" d="M753 0L228 638V0H160V745H228L754 109V745H822V0H753Z"  />
<glyph unicode="O" horiz-adv-x="963" d="M883 372Q883 288 852 217T766 94T639 13T484 -16Q400 -16 327 13T199 94T112 217T80 374Q80 457 111 528T197 650T324 731T479 761Q562 761 635 732T764 652T851 529T883 372ZM815 370Q815 440 789 499T718 601T613 669T483 694Q415 694 355 671T248 605T174 505T147 376Q147 305 173 246T244 143T350 76T481 52Q550 52 610 75T716 140T788 240T815 370Z"  />
<glyph unicode="P" horiz-adv-x="870" d="M776 530Q776 479 756 433T693 355Q679 344 660 338T618 327T571 321T525 319H195V0H126V745H558Q602 745 637 737T706 699Q742 667 759 623T776 530ZM707 532Q707 606 669 641T558 677H195V388H525Q573 388 602 393T650 409Q681 428 694 462T707 532Z"  />
<glyph unicode="Q" horiz-adv-x="1000" d="M900 373Q900 300 874 232T798 109Q781 90 762 74T722 41L798 -37L736 -73L658 9Q636 2 617 -3T579 -12T540 -18T497 -20Q415 -20 343 10T216 93T131 217T99 371Q99 455 130 527T216 651T344 732T500 762Q582 762 655 733T782 652T868 529T900 373ZM832 372Q832 443 806 502T735 603T630 669T499 693Q430 693 370 669T264 603T193 502T167 373Q167 299 194 240T268 138T378 72T512 49Q538 49 558 51T603 62L533 135L597 171L672 93Q750 142 791 210T832 372Z"  />
<glyph unicode="R" horiz-adv-x="889" d="M800 531Q800 507 795 482T778 434T752 390T717 356Q702 345 685 338T652 326T620 319T595 315L784 0H705L517 315H192V0H122V746H561Q589 746 608 745T643 740T671 731T702 716Q725 703 743 682T774 636T793 583T800 531ZM732 534Q732 571 717 602T670 654Q660 660 650 664T623 671T585 675T531 677H192V383H531Q561 383 583 384T621 388T651 396T675 410Q704 431 718 465T732 534Z"  />
<glyph unicode="S" horiz-adv-x="833" d="M779 214Q779 145 743 101T653 30T535 -6T418 -17Q369 -17 322 -10T228 15Q199 25 176 37T133 65T93 97T52 136L99 185Q135 148 171 123T246 82T329 59T424 52Q449 52 480 54T542 63T604 81T658 111T696 154T710 213Q710 249 694 275T652 318T598 344T542 355Q527 356 502 357T450 358T394 358T345 359Q303 360 260 369T183 400T128 455T106 539Q106 581 122 614T165 673T226 716T298 744Q333 754 368 758T439 762Q526 762 596 735T736 655L694 604Q660 626 630 643T568 671T503 689T427 695Q403 695 379 693T331 685Q305 679 277 668T226 638T189 596T174 540Q174 505 190 484T232 450T287 433T345 427Q367 426 394 426T448 425T501 423T548 421Q595 417 637 402T710 361T760 299T779 214Z"  />
<glyph unicode="T" horiz-adv-x="759" d="M415 678V0H347V678H61V746H697V678H415Z"  />
<glyph unicode="U" horiz-adv-x="963" d="M813 269Q813 192 787 138T716 49T609 -2T476 -18Q407 -18 348 -1T245 51T177 141T152 269V745H220V269Q220 207 240 165T296 98T380 61T484 50Q514 50 547 54T611 70T670 99T715 144Q735 173 740 203T745 269V745H813V269H813Z"  />
<glyph unicode="V" horiz-adv-x="833" d="M447 0H381L22 745H94L414 86L738 745H813L447 0Z"  />
<glyph unicode="W" horiz-adv-x="1000" d="M739 0H671L500 613L332 0H264L22 745H94L297 126L466 745H535L707 126L908 745H980L739 0Z"  />
<glyph unicode="X" horiz-adv-x="778" d="M669 0L390 348L110 0H22L346 404L70 746H155L390 458L619 746H710L433 404L757 0H669Z"  />
<glyph unicode="Y" horiz-adv-x="778" d="M426 325V0H357V325L18 745H107L392 391L673 745H759L426 325Z"  />
<glyph unicode="Z" horiz-adv-x="685" d="M56 0L19 72L573 677H60V745H628L667 674L110 71H672V0H56Z"  />
<glyph unicode="[" horiz-adv-x="426" d="M145 0V746H301V691H212V55H301V0H145Z"  />
<glyph unicode="\" horiz-adv-x="630" d="M491 -20L46 747H113L558 -20H491Z"  />
<glyph unicode="]" horiz-adv-x="426" d="M125 0V55H214V691H125V746H281V0H125Z"  />
<glyph unicode="^" horiz-adv-x="889" d="M596 340L445 618L293 340H236L416 668H473L653 340H596Z"  />
<glyph unicode="_" horiz-adv-x="500" d="M0 -125V-76H500V-125H0Z"  />
<glyph unicode="`" horiz-adv-x="333" d="M168 575L70 682H177L245 575H168Z"  />
<glyph unicode="a" horiz-adv-x="685" d="M594 0L522 129H165L92 0H21L315 516H376L665 0H594ZM345 445L204 197H484L345 445Z"  />
<glyph unicode="b" horiz-adv-x="741" d="M631 154Q631 111 617 82T578 34T520 8T447 0H111V516H447Q481 516 510 508T560 483T594 440T607 377Q607 346 596 324T565 279Q598 252 614 225T631 154ZM539 378Q539 399 532 413T513 434T485 445T449 448H179V307H447Q466 307 483 310T512 320T532 342T539 378ZM564 149Q564 176 555 193T529 220T492 234T447 238H179V69H447Q470 69 491 71T528 81T554 106T564 149Z"  />
<glyph unicode="c" horiz-adv-x="741" d="M629 375Q576 419 521 442T396 465Q349 465 306 452T229 412T175 347T155 257Q155 203 177 164T237 100T320 63T414 51Q481 51 532 68T638 124L665 62Q611 20 546 1T412 -18Q349 -18 291 -1T187 51T115 138T87 258Q87 322 112 373T179 460T277 514T394 533Q474 533 541 509T668 432L629 375Z"  />
<glyph unicode="d" horiz-adv-x="759" d="M655 254Q655 197 637 150T586 70T507 18T402 0H112V516H402Q451 516 488 507T564 464Q609 424 632 369T655 254ZM588 255Q588 297 573 335T529 404Q500 432 472 440T404 448H179V68H402Q490 68 539 118T588 255Z"  />
<glyph unicode="e" horiz-adv-x="685" d="M120 0V516H574V448H187V298H409V230H187V69H585V0H120Z"  />
<glyph unicode="f" horiz-adv-x="631" d="M187 448V302H422V233H187V0H120V516H567V448H187Z"  />
<glyph unicode="g" horiz-adv-x="741" d="M652 82Q601 34 531 10T391 -15Q329 -15 273 3T173 55T103 141T77 258Q77 324 103 375T174 461T275 515T393 533Q465 533 521 513T635 451L598 394Q572 412 549 425T501 447T451 460T393 465Q347 465 303 452T223 414T166 349T144 259Q144 207 164 169T219 105T298 66T389 53Q443 53 491 67T584 113V214H414V283H652V82H652Z"  />
<glyph unicode="h" horiz-adv-x="796" d="M577 0V232H220V0H153V516H220V300H577V516H645V0H577Z"  />
<glyph unicode="i" horiz-adv-x="370" d="M154 0V516H222V0H154Z"  />
<glyph unicode="j" horiz-adv-x="648" d="M535 183Q535 135 514 98T458 36T380 -2T294 -15Q216 -15 156 18T63 124L119 162Q147 105 188 79T292 53Q321 53 352 61T409 85T451 126T468 185V516H535V183H535Z"  />
<glyph unicode="k" horiz-adv-x="667" d="M523 0L321 278L184 151V0H115V516H184V244L479 516H578L371 325L609 0H523Z"  />
<glyph unicode="l" horiz-adv-x="574" d="M123 0V516H190V68H527V0H123Z"  />
<glyph unicode="m" horiz-adv-x="870" d="M654 0V395L436 68L219 395V0H152V516H221L436 189L654 516H721V0H654Z"  />
<glyph unicode="n" horiz-adv-x="796" d="M581 0L218 414V0H151V516H218L581 103V516H648V0H581Z"  />
<glyph unicode="o" horiz-adv-x="796" d="M715 253Q715 187 688 136T617 51T515 -1T397 -19Q335 -19 278 0T177 55T107 143T81 261Q81 325 107 375T178 461T278 515T394 534Q455 534 513 515T616 460T688 371T715 253ZM647 253Q647 305 625 344T568 411T487 451T394 465Q349 465 305 452T226 412T170 348T148 260Q148 208 169 169T226 103T306 63T399 49Q445 49 489 61T569 99T625 163T647 253Z"  />
<glyph unicode="p" horiz-adv-x="704" d="M628 353Q628 311 614 281T576 231T518 203T445 194H196V0H128V516H445Q485 516 518 507T576 477T614 426T628 353ZM561 352Q561 380 553 398T529 427T492 442T445 447H196V262H445Q469 262 490 265T527 279T552 306T561 352Z"  />
<glyph unicode="q" horiz-adv-x="815" d="M722 257Q722 179 689 125T590 29L649 -34L583 -62L524 -1Q494 -9 466 -13T406 -17Q345 -17 288 1T187 55T117 142T90 260Q90 325 116 376T185 463T285 518T402 537Q464 537 522 519T624 464T695 376T722 257ZM656 257Q656 309 634 348T577 414T496 454T403 468Q356 468 312 455T233 415T179 350T158 259Q158 206 180 167T239 102T322 63T415 50Q429 50 440 51T466 56L420 108L487 137L541 81Q595 110 625 152T656 257Z"  />
<glyph unicode="r" horiz-adv-x="741" d="M574 0L427 209H197V0H130V516H451Q488 516 523 508T586 482T631 435T648 363Q648 331 637 306T607 262T563 231T508 214L659 0H574ZM580 363Q580 390 568 407T538 433T496 445T451 448H197V276H451Q473 276 496 279T538 292T568 319T580 363Z"  />
<glyph unicode="s" horiz-adv-x="685" d="M622 145Q622 97 599 65T539 15T460 -11T377 -19Q291 -19 207 4Q184 10 166 16T132 31T99 49T62 73L95 135Q104 128 113 122T131 109Q182 77 246 63T371 48Q393 48 424 51T484 65T533 94T553 144Q553 168 542 184T514 211T476 226T434 232Q395 234 357 234T279 236Q247 237 216 245T159 271T117 316T101 379Q101 424 122 453T177 501T251 526T327 534Q395 534 465 517T592 462L561 401Q528 421 503 433T452 453T397 462T330 465Q310 465 283 462T230 450T187 425T169 380Q169 359 179 345T204 321T239 308T275 304L419 301Q455 300 491 292T556 264T603 216T622 145Z"  />
<glyph unicode="t" horiz-adv-x="593" d="M328 449V0H262V449H54V516H539V449H328Z"  />
<glyph unicode="u" horiz-adv-x="796" d="M650 201Q650 143 631 102T579 36T500 -2T400 -14Q346 -14 300 -3T221 34T168 101T149 201V516H217V201Q217 157 231 129T270 84T329 61T402 54Q440 54 473 61T530 84T569 129T583 201V516H650V201H650Z"  />
<glyph unicode="v" horiz-adv-x="667" d="M367 0H299L21 516H98L334 78L571 516H649L367 0Z"  />
<glyph unicode="w" horiz-adv-x="833" d="M623 0H555L420 404L282 0H215L17 516H90L246 108L387 516H454L590 108L743 516H816L623 0Z"  />
<glyph unicode="x" horiz-adv-x="648" d="M541 0L325 226L109 0H18L279 277L52 516H143L325 325L506 516H600L371 277L634 0H541Z"  />
<glyph unicode="y" horiz-adv-x="574" d="M323 256V0H254V256L20 516H109L289 318L468 516H558L323 256Z"  />
<glyph unicode="z" horiz-adv-x="537" d="M60 0L20 62L407 447H46V516H471L510 455L123 69H518V0H60Z"  />
<glyph unicode="{" horiz-adv-x="426" d="M320 -16Q273 -16 244 -9T197 13T173 52T166 110V268Q166 316 148 334T86 358V395Q108 398 123 402T148 416T162 442T166 485V635Q166 669 173 693T197 732T245 754T320 761V713Q279 713 259 698T239 637V500Q239 440 215 411T137 376Q191 369 215 341T239 253V108Q239 63 259 47T320 31V-16H320Z"  />
<glyph unicode="|" horiz-adv-x="351" d="M147 -250V750H204V-250H147Z"  />
<glyph unicode="}" horiz-adv-x="426" d="M339 350Q316 347 301 343T277 328T263 302T259 260V110Q259 76 252 52T228 13T180 -9T105 -16V32Q125 32 140 35T166 46T181 70T186 108V245Q186 305 210 334T288 369Q234 376 210 404T186 492V637Q186 682 166 698T105 714V761Q151 761 181 754T228 732T252 693T259 635V477Q259 429 277 411T339 387V350H339Z"  />
<glyph unicode="~" horiz-adv-x="889" d="M681 237Q670 225 657 213T628 190T596 174T563 167Q531 167 501 177T441 199T385 221T332 231Q318 231 305 226T280 212T259 194T243 177L211 218Q220 230 233 242T263 264T296 281T329 288Q360 288 390 278T450 256T506 234T560 224Q588 224 609 241T649 278L681 237H681Z"  />
<glyph unicode="&#xA0;" horiz-adv-x="370" />
<glyph unicode="&#xA1;" horiz-adv-x="333" d="M231 697Q231 671 213 652T168 633Q141 633 123 652T105 697Q105 723 123 741T168 760Q194 760 212 742T231 697ZM123 -4L142 565H195L213 -4H123Z"  />
<glyph unicode="&#xA2;" horiz-adv-x="889" d="M695 443Q670 464 647 479T599 506T547 523T486 532V119Q550 121 600 138T703 192L730 130Q678 89 615 71T486 51V-40H433V53Q375 60 324 80T235 134T174 217T152 327Q152 387 174 436T235 520T324 575T433 601V693H486V601Q558 596 618 572T733 500L695 443ZM433 532Q390 528 352 513T284 471T237 409T220 326Q220 279 237 244T284 183T352 142T433 122V532Z"  />
<glyph unicode="&#xA3;" horiz-adv-x="889" d="M665 475Q665 508 650 532T610 571T556 594T498 602Q460 602 428 592T373 562T337 512T324 442V373H522V308H324V66H718V0H149V66H250V308H149V373H250V448Q250 506 270 548T325 616T406 655T507 668Q552 668 594 657T668 621T720 561T740 475H665Z"  />
<glyph unicode="&#xA4;" horiz-adv-x="753" d="M601 174Q591 164 583 155T564 136Q547 153 531 169T497 202Q474 183 444 173T380 162Q355 162 324 170T263 202Q246 185 230 169T196 136Q187 145 178 154T159 174Q176 190 193 206T227 238Q210 262 199 291T187 354Q187 387 197 417T227 470Q210 487 193 502T159 535Q169 545 178 554T196 573Q213 556 229 540T263 507Q293 529 324 537T380 546Q408 546 440 537T497 507Q514 524 530 540T564 573Q574 564 582 555T601 535Q584 518 567 503T533 470Q554 444 563 414T573 354Q573 322 563 293T533 238Q550 222 567 206T601 174ZM521 355Q521 386 509 411T478 455T433 484T381 494Q351 494 325 483T280 452T250 408T239 355Q239 326 250 301T280 256T325 226T380 214Q409 214 434 225T479 255T510 300T521 355Z"  />
<glyph unicode="&#xA5;" horiz-adv-x="889" d="M565 396H689V341H516L464 283V263H689V208H464V0H396V208H170V263H396V283L343 341H170V396H294L60 654H148L430 341L708 654H794L565 396Z"  />
<glyph unicode="&#xA6;" horiz-adv-x="351" d="M147 325V675H204V325H147ZM147 -175V175H204V-175H147Z"  />
<glyph unicode="&#xA7;" horiz-adv-x="593" d="M520 348Q520 330 514 315T498 288T477 267T456 251Q475 237 493 210T512 140Q512 62 452 23T285 -17Q259 -17 230 -13T173 1T118 25T73 60L98 118Q139 81 187 62T286 42Q316 42 344 46T393 62T428 92T442 140Q442 158 434 171T414 194T386 211T357 224L204 283Q153 303 120 336T87 426Q87 442 93 457T108 485T128 508T149 524Q129 541 118 566T106 621Q106 659 124 685T170 729T232 753T298 761Q323 761 351 756T407 742T458 718T499 687L476 631Q463 645 442 658T397 680T348 696T300 702Q281 702 260 699T220 687T190 663T178 623Q178 607 185 594T202 571T226 554T252 541L405 483Q428 474 449 461T485 431T510 393T520 348ZM447 343Q447 375 427 393T378 424L201 497Q184 488 171 471T157 429Q157 411 165 397T185 373T212 354T243 340L403 278Q422 287 434 305T447 343Z"  />
<glyph unicode="&#xA8;" horiz-adv-x="333" d="M209 583V676H301V583H209ZM32 583V676H124V583H32Z"  />
<glyph unicode="&#xA9;" horiz-adv-x="945" d="M862 372Q862 291 832 221T748 97T625 14T473 -17Q392 -17 321 13T197 97T114 220T83 372Q83 453 113 523T197 647T320 730T472 761Q553 761 624 731T748 647T831 524T862 372ZM807 372Q807 441 781 502T710 608T603 680T473 706Q404 706 343 680T237 608T165 502T138 372Q138 303 164 242T236 136T342 65T472 38Q541 38 602 64T708 135T780 242T807 372ZM676 249Q627 203 578 180T468 157Q422 157 381 173T310 218T262 287T244 375Q244 424 261 464T310 532T382 577T470 593Q530 593 578 574T674 506L636 464Q598 504 560 520T474 536Q438 536 406 525T351 492T315 442T301 375Q301 340 314 311T351 260T404 227T470 215Q517 215 557 234T637 291L676 249Z"  />
<glyph unicode="&#xAA;" horiz-adv-x="500" d="M362 313V348Q333 321 300 311T228 301Q201 301 174 307T125 326T89 361T75 415Q75 453 92 475T137 508T203 523T280 526H362Q362 540 361 552T354 579Q348 592 337 600T313 613T285 619T257 621Q242 621 226 619T195 611T170 595T155 566H97Q101 599 117 619T158 650T210 664T267 668Q351 668 387 629T423 508V313H362ZM287 479Q267 479 246 479T205 477Q173 474 154 461T134 413Q134 394 143 382T165 363T196 353T229 350Q286 350 320 376T359 464L360 479H287Z"  />
<glyph unicode="&#xAB;" horiz-adv-x="519" d="M393 67L258 263L393 456H465L349 263L465 67H393ZM188 67L54 263L188 456H260L145 263L260 67H188Z"  />
<glyph unicode="&#xAC;" horiz-adv-x="889" d="M618 130V272H214V329H675V131L618 130Z"  />
<glyph unicode="&#xAD;" horiz-adv-x="610" d="M140 221V292H470V221H140Z"  />
<glyph unicode="&#xAE;" horiz-adv-x="945" d="M862 372Q862 291 832 221T748 97T625 14T473 -17Q392 -17 321 13T197 97T114 220T83 372Q83 453 113 523T197 647T320 730T472 761Q553 761 624 731T748 647T831 524T862 372ZM807 372Q807 441 781 502T710 608T603 680T473 706Q404 706 343 680T237 608T165 502T138 372Q138 303 164 242T236 136T342 65T472 38Q541 38 602 64T708 135T780 242T807 372ZM690 467Q690 441 677 413T640 367Q625 357 612 353T583 346L689 178H622L518 344H354V178H295V590H546Q575 590 593 587T631 573Q659 558 674 527T690 467ZM632 469Q632 505 603 523Q592 530 579 532T536 534H354V399H546Q572 399 584 402T605 411Q619 421 625 436T632 469Z"  />
<glyph unicode="&#xAF;" horiz-adv-x="370" d="M50 600V659H320V600H50Z"  />
<glyph unicode="&#xB0;" horiz-adv-x="593" d="M410 645Q410 622 401 602T377 566T341 541T296 532Q273 532 253 541T217 565T192 601T183 645Q183 669 192 689T216 725T252 750T296 759Q320 759 340 750T376 726T401 690T410 645ZM365 645Q365 674 345 694T296 714Q268 714 248 694T228 645Q228 617 248 597T296 577Q325 577 345 597T365 645Z"  />
<glyph unicode="&#xB1;" horiz-adv-x="889" d="M473 232V65H416V232H214V289H416V461H473V289H675V232H473ZM214 -57V0H675V-57H214Z"  />
<glyph unicode="&#xB2;" horiz-adv-x="519" d="M432 545Q432 522 424 505T401 475T369 454T329 441Q306 436 285 433T240 424Q199 416 175 393T143 326H427V266H75Q76 324 89 363T123 426T170 464T224 483Q251 490 277 493T323 501Q343 506 356 516T369 546Q369 565 357 577T327 596T290 605T258 607Q212 607 180 594T111 555L75 605Q120 635 162 651T259 668Q287 668 317 661T373 640T415 602T432 545Z"  />
<glyph unicode="&#xB3;" horiz-adv-x="519" d="M451 381Q451 345 433 321T386 281T324 260T261 253Q201 253 146 270T43 323L75 374Q120 345 166 329T267 313Q281 313 301 316T341 326T375 347T389 381Q389 395 381 405T361 422Q349 428 337 432T308 439T268 443T213 444V504Q225 504 237 503T261 501Q272 501 290 502T325 509T355 524T368 553Q368 569 355 579T325 596T290 605T262 608Q241 608 223 606T189 598T156 585T120 569L91 622Q114 634 133 642T172 656T213 665T261 668Q287 668 317 662T372 641T413 604T430 551Q430 527 421 510T391 475Q418 456 434 435T451 381Z"  />
<glyph unicode="&#xB4;" horiz-adv-x="333" d="M154 574H76L144 684H253L154 574Z"  />
<glyph unicode="&#xB5;" horiz-adv-x="796" d="M583 0V54Q574 45 558 33T518 11T464 -7T397 -14Q359 -14 331 -10T282 3T246 23T217 49V-146H149V516H217V199Q217 155 231 127T269 82T326 60T399 54Q434 54 467 61T526 86T567 130T583 199V516H650V0H583Z"  />
<glyph unicode="&#xB6;" horiz-adv-x="796" d="M624 0V680H543V0H477V320H347Q302 320 260 325T179 356Q136 385 116 433T96 531Q96 579 113 623T166 700Q200 730 235 738T314 746H687V0H624ZM477 680H314Q241 680 203 644T165 533Q165 498 178 464T222 410Q240 398 270 394T347 389H477V680Z"  />
<glyph unicode="&#xB7;" horiz-adv-x="370" d="M249 326Q249 300 230 282T185 263Q159 263 140 281T121 326Q121 352 139 371T184 390Q211 390 230 371T249 326Z"  />
<glyph unicode="&#xB8;" horiz-adv-x="370" d="M302 -142Q302 -168 291 -184T261 -209T221 -221T178 -225Q160 -225 145 -224T117 -221T89 -216T57 -206L80 -160Q103 -167 125 -172T170 -177Q186 -177 202 -170T218 -144Q218 -127 204 -120T175 -113Q149 -113 130 -121L109 -94L185 10H240L177 -76Q184 -74 192 -73T215 -72Q248 -72 275 -88T302 -142Z"  />
<glyph unicode="&#xB9;" horiz-adv-x="519" d="M229 266V658H290V266H229Z"  />
<glyph unicode="&#xBA;" horiz-adv-x="500" d="M462 481Q462 437 444 403T397 345T329 310T250 298Q208 298 170 310T103 347T56 406T38 486Q38 529 56 562T103 619T170 655T247 668Q288 668 326 655T395 618T443 560T462 481ZM402 481Q402 512 389 536T354 577T304 601T248 610Q221 610 194 602T146 578T111 539T97 485Q97 453 110 429T144 389T193 364T250 356Q278 356 305 363T354 387T389 426T402 481Z"  />
<glyph unicode="&#xBB;" horiz-adv-x="519" d="M331 67H258L374 263L258 456H331L465 263L331 67ZM126 67H54L169 263L54 456H126L260 263L126 67Z"  />
<glyph unicode="&#xBC;" horiz-adv-x="1000" d="M811 99V0H752V99H477L448 163L755 398H811V159H906V99H811ZM207 -23H132L655 697H732L207 -23ZM175 260V659H238V260H175ZM752 325L527 159H752V325Z"  />
<glyph unicode="&#xBD;" horiz-adv-x="1000" d="M892 279Q892 256 884 239T861 209T829 188T789 175Q766 170 745 167T700 158Q659 150 635 127T603 60H887V0H535Q536 58 549 97T583 160T630 198T684 217Q711 224 737 227T783 235Q803 240 816 250T829 280Q829 299 817 311T787 330T750 339T718 341Q672 341 640 328T571 289L535 339Q580 369 622 385T719 402Q747 402 777 395T833 374T875 336T892 279ZM181 -23H106L630 697H706L181 -23ZM149 260V659H216V260H149Z"  />
<glyph unicode="&#xBE;" horiz-adv-x="1000" d="M895 99V0H836V99H561L532 163L839 398H895V159H990V99H895ZM313 -23H238L761 697H838L313 -23ZM430 381Q430 345 412 321T365 281T303 260T240 253Q180 253 125 270T22 323L54 374Q99 345 145 329T246 313Q260 313 280 316T320 326T354 347T368 381Q368 395 360 405T340 422Q328 428 316 432T287 439T247 443T192 444V504Q204 504 216 503T240 501Q251 501 269 502T304 509T334 524T347 553Q347 569 334 579T304 596T269 605T241 608Q220 608 202 606T168 598T135 585T99 569L70 622Q93 634 112 642T151 656T192 665T240 668Q266 668 296 662T351 641T392 604T409 551Q409 527 400 510T370 475Q397 456 413 435T430 381ZM836 325L611 159H836V325Z"  />
<glyph unicode="&#xBF;" horiz-adv-x="556" d="M402 698Q402 672 384 653T339 634Q313 634 294 653T275 698Q275 724 294 742T339 761Q365 761 383 743T402 698ZM496 2Q453 -9 409 -13T320 -17Q273 -17 228 -9T149 21T93 78T72 169Q72 230 103 274T181 354L282 431Q296 442 301 456T306 487V562H372V487Q372 459 369 443T360 416T346 399T329 385L224 304Q189 277 169 248T148 174Q148 133 163 108T204 70T262 52T329 48Q374 48 413 54T496 72V2Z"  />
<glyph unicode="&#xC0;" horiz-adv-x="833" d="M739 0L608 266H226L95 0H19L384 746H453L815 0H739ZM419 660L260 334H577L419 660ZM408 802L310 909H417L485 802H408Z"  />
<glyph unicode="&#xC1;" horiz-adv-x="833" d="M739 0L608 266H226L95 0H19L384 746H453L815 0H739ZM419 660L260 334H577L419 660ZM434 802H356L424 912H533L434 802Z"  />
<glyph unicode="&#xC2;" horiz-adv-x="833" d="M739 0L608 266H226L95 0H19L384 746H453L815 0H739ZM419 660L260 334H577L419 660ZM467 802L418 859L363 802H286L361 909H473L554 802H467Z"  />
<glyph unicode="&#xC3;" horiz-adv-x="833" d="M739 0L608 266H226L95 0H19L384 746H453L815 0H739ZM419 660L260 334H577L419 660ZM578 911Q577 888 573 869T560 836T534 814T492 806Q470 806 450 811T411 821T374 832T339 837Q320 837 313 828T303 801H244Q244 823 248 842T263 876T289 899T330 908Q351 908 370 903T407 891T443 880T478 874Q497 874 506 883T518 911H578H578Z"  />
<glyph unicode="&#xC4;" horiz-adv-x="833" d="M739 0L608 266H226L95 0H19L384 746H453L815 0H739ZM419 660L260 334H577L419 660ZM460 810V903H552V810H460ZM283 810V903H375V810H283Z"  />
<glyph unicode="&#xC5;" horiz-adv-x="833" d="M739 0L608 266H226L95 0H19L384 746H453L815 0H739ZM419 660L260 334H577L419 660ZM526 912Q526 889 517 869T493 833T457 810T413 801Q389 801 369 810T332 834T307 870T298 915Q298 939 307 959T332 995T368 1020T413 1029Q437 1029 457 1020T493 994T517 957T526 912ZM472 912Q472 937 455 955T412 974Q387 974 370 957T353 915Q353 891 369 874T411 856Q435 856 453 871T472 912Z"  />
<glyph unicode="&#xC6;" horiz-adv-x="1308" d="M589 0V264H290L89 0H13L578 745H1204V675H656V418H955V350H656V68H1228V0H589ZM589 658L343 333H589V658Z"  />
<glyph unicode="&#xC7;" horiz-adv-x="926" d="M851 136Q777 67 695 27T510 -17L467 -82Q476 -80 485 -80T503 -80Q538 -80 565 -98T592 -156Q592 -181 581 -198T551 -227T511 -243T468 -248Q436 -248 406 -242T344 -225L366 -175Q388 -183 411 -188T458 -194Q475 -194 490 -187T505 -159Q505 -141 492 -133T463 -124Q451 -124 440 -126T418 -132L396 -103L454 -16Q375 -10 308 21T191 104T113 223T85 372Q85 459 116 531T203 654T332 733T491 762Q599 762 685 729T848 617L802 568Q736 635 663 664T495 694Q424 694 362 671T254 606T180 505T153 372Q153 301 180 242T253 141T360 76T491 52Q584 52 660 88T804 186L851 136H851Z"  />
<glyph unicode="&#xC8;" horiz-adv-x="852" d="M133 0V745H748V675H200V419H499V351H200V68H772V0H133ZM438 802L340 909H447L515 802H438Z"  />
<glyph unicode="&#xC9;" horiz-adv-x="852" d="M133 0V745H748V675H200V419H499V351H200V68H772V0H133ZM444 802H366L434 912H543L444 802Z"  />
<glyph unicode="&#xCA;" horiz-adv-x="852" d="M133 0V745H748V675H200V419H499V351H200V68H772V0H133ZM496 802L447 859L392 802H315L390 909H502L583 802H496Z"  />
<glyph unicode="&#xCB;" horiz-adv-x="852" d="M133 0V745H748V675H200V419H499V351H200V68H772V0H133ZM483 810V903H575V810H483ZM306 810V903H398V810H306Z"  />
<glyph unicode="&#xCC;" horiz-adv-x="370" d="M154 0V745H220V0H154ZM168 802L70 909H177L245 802H168Z"  />
<glyph unicode="&#xCD;" horiz-adv-x="370" d="M154 0V745H220V0H154ZM211 802H133L201 912H310L211 802Z"  />
<glyph unicode="&#xCE;" horiz-adv-x="370" d="M154 0V745H220V0H154ZM236 802L187 859L132 802H55L130 909H242L323 802H236Z"  />
<glyph unicode="&#xCF;" horiz-adv-x="370" d="M154 0V745H220V0H154ZM226 810V903H318V810H226ZM49 810V903H141V810H49Z"  />
<glyph unicode="&#xD0;" horiz-adv-x="926" d="M835 374Q835 290 807 222T730 104T616 27T475 0H122V352H10V420H122V746H475Q556 746 622 720T736 644T809 527T835 374ZM766 372Q766 447 744 504T683 600T591 658T475 678H191V420H451V352H191V68H475Q534 68 587 87T679 144T742 239T766 372Z"  />
<glyph unicode="&#xD1;" horiz-adv-x="981" d="M753 0L228 638V0H160V745H228L754 109V745H822V0H753ZM665 911Q664 888 660 869T647 836T621 814T579 806Q557 806 537 811T498 821T461 832T426 837Q407 837 400 828T390 801H331Q331 823 335 842T350 876T376 899T417 908Q438 908 457 903T494 891T530 880T565 874Q584 874 593 883T605 911H665H665Z"  />
<glyph unicode="&#xD2;" horiz-adv-x="963" d="M883 372Q883 288 852 217T766 94T639 13T484 -16Q400 -16 327 13T199 94T112 217T80 374Q80 457 111 528T197 650T324 731T479 761Q562 761 635 732T764 652T851 529T883 372ZM815 370Q815 440 789 499T718 601T613 669T483 694Q415 694 355 671T248 605T174 505T147 376Q147 305 173 246T244 143T350 76T481 52Q550 52 610 75T716 140T788 240T815 370ZM468 802L370 909H477L545 802H468Z"  />
<glyph unicode="&#xD3;" horiz-adv-x="963" d="M883 372Q883 288 852 217T766 94T639 13T484 -16Q400 -16 327 13T199 94T112 217T80 374Q80 457 111 528T197 650T324 731T479 761Q562 761 635 732T764 652T851 529T883 372ZM815 370Q815 440 789 499T718 601T613 669T483 694Q415 694 355 671T248 605T174 505T147 376Q147 305 173 246T244 143T350 76T481 52Q550 52 610 75T716 140T788 240T815 370ZM494 802H416L484 912H593L494 802Z"  />
<glyph unicode="&#xD4;" horiz-adv-x="963" d="M883 372Q883 288 852 217T766 94T639 13T484 -16Q400 -16 327 13T199 94T112 217T80 374Q80 457 111 528T197 650T324 731T479 761Q562 761 635 732T764 652T851 529T883 372ZM815 370Q815 440 789 499T718 601T613 669T483 694Q415 694 355 671T248 605T174 505T147 376Q147 305 173 246T244 143T350 76T481 52Q550 52 610 75T716 140T788 240T815 370ZM526 802L477 859L422 802H345L420 909H532L613 802H526Z"  />
<glyph unicode="&#xD5;" horiz-adv-x="963" d="M883 372Q883 288 852 217T766 94T639 13T484 -16Q400 -16 327 13T199 94T112 217T80 374Q80 457 111 528T197 650T324 731T479 761Q562 761 635 732T764 652T851 529T883 372ZM815 370Q815 440 789 499T718 601T613 669T483 694Q415 694 355 671T248 605T174 505T147 376Q147 305 173 246T244 143T350 76T481 52Q550 52 610 75T716 140T788 240T815 370ZM637 911Q636 888 632 869T619 836T593 814T551 806Q529 806 509 811T470 821T433 832T398 837Q379 837 372 828T362 801H303Q303 823 307 842T322 876T348 899T389 908Q410 908 429 903T466 891T502 880T537 874Q556 874 565 883T577 911H637H637Z"  />
<glyph unicode="&#xD6;" horiz-adv-x="963" d="M883 372Q883 288 852 217T766 94T639 13T484 -16Q400 -16 327 13T199 94T112 217T80 374Q80 457 111 528T197 650T324 731T479 761Q562 761 635 732T764 652T851 529T883 372ZM815 370Q815 440 789 499T718 601T613 669T483 694Q415 694 355 671T248 605T174 505T147 376Q147 305 173 246T244 143T350 76T481 52Q550 52 610 75T716 140T788 240T815 370ZM520 810V903H612V810H520ZM343 810V903H435V810H343Z"  />
<glyph unicode="&#xD7;" horiz-adv-x="889" d="M601 34L444 190L288 34L248 74L404 230L248 387L288 427L444 271L601 427L641 387L485 230L641 74L601 34Z"  />
<glyph unicode="&#xD8;" horiz-adv-x="963" d="M883 372Q883 289 852 218T766 95T640 14T485 -16Q415 -16 352 3T232 65L126 -52L80 -11L185 106Q133 161 107 229T80 373Q80 456 111 527T197 650T323 732T478 762Q544 762 601 746T714 693L804 793L850 751L762 654Q819 597 851 526T883 372ZM815 370Q815 436 790 496T716 603L276 114Q321 82 374 67T482 52Q550 52 610 75T716 141T788 241T815 370ZM668 642Q624 670 579 682T482 694Q414 694 354 671T247 605T174 504T147 376Q147 347 153 318T170 259T196 204T231 156L668 642Z"  />
<glyph unicode="&#xD9;" horiz-adv-x="963" d="M813 269Q813 192 787 138T716 49T609 -2T476 -18Q407 -18 348 -1T245 51T177 141T152 269V745H220V269Q220 207 240 165T296 98T380 61T484 50Q514 50 547 54T611 70T670 99T715 144Q735 173 740 203T745 269V745H813V269H813ZM468 802L370 909H477L545 802H468Z"  />
<glyph unicode="&#xDA;" horiz-adv-x="963" d="M813 269Q813 192 787 138T716 49T609 -2T476 -18Q407 -18 348 -1T245 51T177 141T152 269V745H220V269Q220 207 240 165T296 98T380 61T484 50Q514 50 547 54T611 70T670 99T715 144Q735 173 740 203T745 269V745H813V269H813ZM494 802H416L484 912H593L494 802Z"  />
<glyph unicode="&#xDB;" horiz-adv-x="963" d="M813 269Q813 192 787 138T716 49T609 -2T476 -18Q407 -18 348 -1T245 51T177 141T152 269V745H220V269Q220 207 240 165T296 98T380 61T484 50Q514 50 547 54T611 70T670 99T715 144Q735 173 740 203T745 269V745H813V269H813ZM532 802L483 859L428 802H351L426 909H538L619 802H532Z"  />
<glyph unicode="&#xDC;" horiz-adv-x="963" d="M813 269Q813 192 787 138T716 49T609 -2T476 -18Q407 -18 348 -1T245 51T177 141T152 269V745H220V269Q220 207 240 165T296 98T380 61T484 50Q514 50 547 54T611 70T670 99T715 144Q735 173 740 203T745 269V745H813V269H813ZM518 811V904H610V811H518ZM341 811V904H433V811H341Z"  />
<glyph unicode="&#xDD;" horiz-adv-x="778" d="M426 325V0H357V325L18 745H107L392 391L673 745H759L426 325ZM434 802H356L424 912H533L434 802Z"  />
<glyph unicode="&#xDE;" horiz-adv-x="870" d="M776 381Q776 330 756 282T693 205Q655 179 613 174T525 169H195V0H126V746H195V595H558Q602 595 637 587T706 549Q742 517 759 473T776 381ZM707 382Q707 456 669 491T558 527H195V239H525Q540 239 556 239T589 241T621 247T650 259Q681 279 694 313T707 382Z"  />
<glyph unicode="&#xDF;" horiz-adv-x="1384" d="M1322 145Q1322 97 1299 65T1239 15T1160 -11T1077 -19Q991 -19 907 4Q884 10 866 16T832 31T799 49T762 73L795 135Q804 128 813 122T831 109Q882 77 946 63T1071 48Q1093 48 1124 51T1184 65T1233 94T1253 144Q1253 168 1242 184T1214 211T1176 226T1134 232Q1095 234 1057 234T979 236Q947 237 916 245T859 271T817 316T801 379Q801 424 822 453T877 501T951 526T1027 534Q1095 534 1165 517T1292 462L1261 401Q1228 421 1203 433T1152 453T1097 462T1030 465Q1010 465 983 462T930 450T887 425T869 380Q869 359 879 345T904 321T939 308T975 304L1119 301Q1155 300 1191 292T1256 264T1303 216T1322 145ZM622 145Q622 97 599 65T539 15T460 -11T377 -19Q291 -19 207 4Q184 10 166 16T132 31T99 49T62 73L95 135Q104 128 113 122T131 109Q182 77 246 63T371 48Q393 48 424 51T484 65T533 94T553 144Q553 168 542 184T514 211T476 226T434 232Q395 234 357 234T279 236Q247 237 216 245T159 271T117 316T101 379Q101 424 122 453T177 501T251 526T327 534Q395 534 465 517T592 462L561 401Q528 421 503 433T452 453T397 462T330 465Q310 465 283 462T230 450T187 425T169 380Q169 359 179 345T204 321T239 308T275 304L419 301Q455 300 491 292T556 264T603 216T622 145Z"  />
<glyph unicode="&#xE0;" horiz-adv-x="685" d="M594 0L522 129H165L92 0H21L315 516H376L665 0H594ZM345 445L204 197H484L345 445ZM328 575L230 682H337L405 575H328Z"  />
<glyph unicode="&#xE1;" horiz-adv-x="685" d="M594 0L522 129H165L92 0H21L315 516H376L665 0H594ZM345 445L204 197H484L345 445ZM369 575H291L359 685H468L369 575Z"  />
<glyph unicode="&#xE2;" horiz-adv-x="685" d="M594 0L522 129H165L92 0H21L315 516H376L665 0H594ZM345 445L204 197H484L345 445ZM394 575L345 632L290 575H213L288 682H400L481 575H394Z"  />
<glyph unicode="&#xE3;" horiz-adv-x="685" d="M594 0L522 129H165L92 0H21L315 516H376L665 0H594ZM345 445L204 197H484L345 445ZM512 684Q511 661 507 642T494 609T468 587T426 579Q404 579 384 584T345 594T308 605T273 610Q254 610 247 601T237 574H178Q178 596 182 615T197 649T223 672T264 681Q285 681 304 676T341 664T377 653T412 647Q431 647 440 656T452 684H512H512Z"  />
<glyph unicode="&#xE4;" horiz-adv-x="685" d="M594 0L522 129H165L92 0H21L315 516H376L665 0H594ZM345 445L204 197H484L345 445ZM389 583V676H481V583H389ZM212 583V676H304V583H212Z"  />
<glyph unicode="&#xE5;" horiz-adv-x="685" d="M594 0L522 129H165L92 0H21L315 516H376L665 0H594ZM345 445L204 197H484L345 445ZM459 685Q459 662 450 642T426 606T390 583T346 574Q322 574 302 583T265 607T240 643T231 688Q231 712 240 732T265 768T301 793T346 802Q370 802 390 793T426 767T450 730T459 685ZM405 685Q405 710 388 728T345 747Q320 747 303 730T286 688Q286 664 302 647T344 629Q368 629 386 644T405 685Z"  />
<glyph unicode="&#xE6;" horiz-adv-x="1038" d="M473 0V127H197L83 0H6L462 516H927V448H541V297H762V229H541V69H938V0H473ZM473 440L257 195H473V440Z"  />
<glyph unicode="&#xE7;" horiz-adv-x="741" d="M629 375Q576 419 521 442T396 465Q349 465 306 452T229 412T175 347T155 257Q155 203 177 164T237 100T320 63T414 51Q481 51 532 68T638 124L665 62Q611 20 548 2T418 -18L377 -74Q386 -73 394 -73T412 -73Q428 -73 444 -76T472 -88T492 -110T500 -142Q500 -167 488 -183T457 -209T416 -223T373 -227Q340 -227 314 -222T255 -206L277 -160Q299 -167 321 -172T367 -177Q382 -177 398 -170T415 -144Q415 -127 401 -120T373 -113Q362 -113 351 -115T328 -121L306 -94L364 -15Q307 -7 257 13T169 67T109 148T87 258Q87 322 112 373T179 460T277 514T394 533Q474 533 541 509T668 432L629 375Z"  />
<glyph unicode="&#xE8;" horiz-adv-x="685" d="M120 0V516H574V448H187V298H409V230H187V69H585V0H120ZM349 575L251 682H358L426 575H349Z"  />
<glyph unicode="&#xE9;" horiz-adv-x="685" d="M120 0V516H574V448H187V298H409V230H187V69H585V0H120ZM368 575H290L358 685H467L368 575Z"  />
<glyph unicode="&#xEA;" horiz-adv-x="685" d="M120 0V516H574V448H187V298H409V230H187V69H585V0H120ZM397 575L348 632L293 575H216L291 682H403L484 575H397Z"  />
<glyph unicode="&#xEB;" horiz-adv-x="685" d="M120 0V516H574V448H187V298H409V230H187V69H585V0H120ZM389 583V676H481V583H389ZM212 583V676H304V583H212Z"  />
<glyph unicode="&#xEC;" horiz-adv-x="370" d="M154 0V516H222V0H154ZM166 575L68 682H175L243 575H166Z"  />
<glyph unicode="&#xED;" horiz-adv-x="370" d="M154 0V516H222V0H154ZM210 575H132L200 685H309L210 575Z"  />
<glyph unicode="&#xEE;" horiz-adv-x="370" d="M154 0V516H222V0H154ZM237 575L188 632L133 575H56L131 682H243L324 575H237Z"  />
<glyph unicode="&#xEF;" horiz-adv-x="370" d="M154 0V516H222V0H154ZM229 583V676H321V583H229ZM52 583V676H144V583H52Z"  />
<glyph unicode="&#xF0;" horiz-adv-x="759" d="M655 255Q655 198 637 151T586 71T507 19T402 0H112V231H31V299H112V516H402Q451 516 488 507T564 464Q609 425 632 370T655 255ZM588 256Q588 298 573 336T529 404Q500 432 472 440T404 448H179V299H355V231H179V68H402Q490 68 539 118T588 256Z"  />
<glyph unicode="&#xF1;" horiz-adv-x="796" d="M581 0L218 414V0H151V516H218L581 103V516H648V0H581ZM562 684Q561 661 557 642T544 609T518 587T476 579Q454 579 434 584T395 594T358 605T323 610Q304 610 297 601T287 574H228Q228 596 232 615T247 649T273 672T314 681Q335 681 354 676T391 664T427 653T462 647Q481 647 490 656T502 684H562H562Z"  />
<glyph unicode="&#xF2;" horiz-adv-x="796" d="M715 253Q715 187 688 136T617 51T515 -1T397 -19Q335 -19 278 0T177 55T107 143T81 261Q81 325 107 375T178 461T278 515T394 534Q455 534 513 515T616 460T688 371T715 253ZM647 253Q647 305 625 344T568 411T487 451T394 465Q349 465 305 452T226 412T170 348T148 260Q148 208 169 169T226 103T306 63T399 49Q445 49 489 61T569 99T625 163T647 253ZM371 575L273 682H380L448 575H371Z"  />
<glyph unicode="&#xF3;" horiz-adv-x="796" d="M715 253Q715 187 688 136T617 51T515 -1T397 -19Q335 -19 278 0T177 55T107 143T81 261Q81 325 107 375T178 461T278 515T394 534Q455 534 513 515T616 460T688 371T715 253ZM647 253Q647 305 625 344T568 411T487 451T394 465Q349 465 305 452T226 412T170 348T148 260Q148 208 169 169T226 103T306 63T399 49Q445 49 489 61T569 99T625 163T647 253ZM414 575H336L404 685H513L414 575Z"  />
<glyph unicode="&#xF4;" horiz-adv-x="796" d="M715 253Q715 187 688 136T617 51T515 -1T397 -19Q335 -19 278 0T177 55T107 143T81 261Q81 325 107 375T178 461T278 515T394 534Q455 534 513 515T616 460T688 371T715 253ZM647 253Q647 305 625 344T568 411T487 451T394 465Q349 465 305 452T226 412T170 348T148 260Q148 208 169 169T226 103T306 63T399 49Q445 49 489 61T569 99T625 163T647 253ZM446 575L397 632L342 575H265L340 682H452L533 575H446Z"  />
<glyph unicode="&#xF5;" horiz-adv-x="796" d="M715 253Q715 187 688 136T617 51T515 -1T397 -19Q335 -19 278 0T177 55T107 143T81 261Q81 325 107 375T178 461T278 515T394 534Q455 534 513 515T616 460T688 371T715 253ZM647 253Q647 305 625 344T568 411T487 451T394 465Q349 465 305 452T226 412T170 348T148 260Q148 208 169 169T226 103T306 63T399 49Q445 49 489 61T569 99T625 163T647 253ZM557 684Q556 661 552 642T539 609T513 587T471 579Q449 579 429 584T390 594T353 605T318 610Q299 610 292 601T282 574H223Q223 596 227 615T242 649T268 672T309 681Q330 681 349 676T386 664T422 653T457 647Q476 647 485 656T497 684H557H557Z"  />
<glyph unicode="&#xF6;" horiz-adv-x="796" d="M715 253Q715 187 688 136T617 51T515 -1T397 -19Q335 -19 278 0T177 55T107 143T81 261Q81 325 107 375T178 461T278 515T394 534Q455 534 513 515T616 460T688 371T715 253ZM647 253Q647 305 625 344T568 411T487 451T394 465Q349 465 305 452T226 412T170 348T148 260Q148 208 169 169T226 103T306 63T399 49Q445 49 489 61T569 99T625 163T647 253ZM436 583V676H528V583H436ZM259 583V676H351V583H259Z"  />
<glyph unicode="&#xF7;" horiz-adv-x="889" d="M497 389Q497 367 482 352T445 337Q423 337 408 352T392 389Q392 411 407 426T444 441Q466 441 481 426T497 389ZM214 202V259H675V202H214ZM497 73Q497 51 482 36T445 21Q423 21 408 36T392 73Q392 95 407 110T444 125Q466 125 481 110T497 73Z"  />
<glyph unicode="&#xF8;" horiz-adv-x="796" d="M715 253Q715 188 689 137T618 52T517 -1T400 -19Q353 -19 307 -8T219 26L139 -63L100 -28L176 55Q131 94 106 147T81 260Q81 324 107 374T177 460T277 515T392 534Q420 534 441 532T482 525T522 512T567 490L643 575L682 540L613 463Q660 423 687 369T715 253ZM647 253Q647 301 626 342T567 412L267 79Q286 70 301 65T332 56T363 51T401 49Q447 49 491 61T569 99T625 163T647 253ZM520 437Q502 445 488 450T459 459T429 463T394 465Q349 465 305 452T226 412T170 348T148 259Q148 214 168 174T221 105L520 437Z"  />
<glyph unicode="&#xF9;" horiz-adv-x="796" d="M650 201Q650 143 631 102T579 36T500 -2T400 -14Q346 -14 300 -3T221 34T168 101T149 201V516H217V201Q217 157 231 129T270 84T329 61T402 54Q440 54 473 61T530 84T569 129T583 201V516H650V201H650ZM383 575L285 682H392L460 575H383Z"  />
<glyph unicode="&#xFA;" horiz-adv-x="796" d="M650 201Q650 143 631 102T579 36T500 -2T400 -14Q346 -14 300 -3T221 34T168 101T149 201V516H217V201Q217 157 231 129T270 84T329 61T402 54Q440 54 473 61T530 84T569 129T583 201V516H650V201H650ZM414 575H336L404 685H513L414 575Z"  />
<glyph unicode="&#xFB;" horiz-adv-x="796" d="M650 201Q650 143 631 102T579 36T500 -2T400 -14Q346 -14 300 -3T221 34T168 101T149 201V516H217V201Q217 157 231 129T270 84T329 61T402 54Q440 54 473 61T530 84T569 129T583 201V516H650V201H650ZM440 575L391 632L336 575H259L334 682H446L527 575H440Z"  />
<glyph unicode="&#xFC;" horiz-adv-x="796" d="M650 201Q650 143 631 102T579 36T500 -2T400 -14Q346 -14 300 -3T221 34T168 101T149 201V516H217V201Q217 157 231 129T270 84T329 61T402 54Q440 54 473 61T530 84T569 129T583 201V516H650V201H650ZM439 583V676H531V583H439ZM262 583V676H354V583H262Z"  />
<glyph unicode="&#xFD;" horiz-adv-x="574" d="M323 256V0H254V256L20 516H109L289 318L468 516H558L323 256ZM320 575H242L310 685H419L320 575Z"  />
<glyph unicode="&#xFE;" horiz-adv-x="704" d="M628 259Q628 217 614 187T576 138T518 109T445 100H196V0H128V516H196V422H445Q485 422 518 413T576 383T614 332T628 259ZM561 258Q561 286 553 304T529 333T492 348T445 353H196V168H445Q469 168 490 171T527 185T552 212T561 258Z"  />
<glyph unicode="&#xFF;" horiz-adv-x="574" d="M323 256V0H254V256L20 516H109L289 318L468 516H558L323 256ZM329 583V676H421V583H329ZM152 583V676H244V583H152Z"  />
<glyph unicode="&#x131;" horiz-adv-x="370" d="M154 0V516H222V0H154Z"  />
<glyph unicode="&#x152;" horiz-adv-x="1294" d="M631 0Q619 0 608 -2T581 -8T543 -13T487 -16Q394 -16 319 9T191 84T109 206T80 372Q80 466 108 538T189 659T316 734T483 760Q513 760 532 758T563 753T583 748T601 746H1190V676H642V420H941V352H642V68H1214V0H631ZM575 681Q551 689 532 691T487 693Q410 693 348 673T241 612T172 513T147 374Q147 294 171 234T238 134T343 73T479 52Q514 52 537 55T575 62V681Z"  />
<glyph unicode="&#x153;" horiz-adv-x="1040" d="M530 0Q523 0 515 -3T493 -9T457 -16T399 -19Q331 -19 273 -3T173 48T106 134T81 257Q81 326 105 377T171 463T270 515T393 532Q421 532 440 530T472 524T494 519T513 516H929V448H543V297H764V229H543V69H940V0H530ZM475 453Q454 458 434 460T392 463Q339 463 295 452T218 417T167 353T148 257Q148 202 167 163T221 98T301 61T403 49Q423 49 439 51T475 58V453Z"  />
<glyph unicode="&#x160;" horiz-adv-x="833" d="M779 214Q779 145 743 101T653 30T535 -6T418 -17Q369 -17 322 -10T228 15Q199 25 176 37T133 65T93 97T52 136L99 185Q135 148 171 123T246 82T329 59T424 52Q449 52 480 54T542 63T604 81T658 111T696 154T710 213Q710 249 694 275T652 318T598 344T542 355Q527 356 502 357T450 358T394 358T345 359Q303 360 260 369T183 400T128 455T106 539Q106 581 122 614T165 673T226 716T298 744Q333 754 368 758T439 762Q526 762 596 735T736 655L694 604Q660 626 630 643T568 671T503 689T427 695Q403 695 379 693T331 685Q305 679 277 668T226 638T189 596T174 540Q174 505 190 484T232 450T287 433T345 427Q367 426 394 426T448 425T501 423T548 421Q595 417 637 402T710 361T760 299T779 214ZM479 802H367L291 909H367L422 852L471 909H559L479 802Z"  />
<glyph unicode="&#x161;" horiz-adv-x="685" d="M622 145Q622 97 599 65T539 15T460 -11T377 -19Q291 -19 207 4Q184 10 166 16T132 31T99 49T62 73L95 135Q104 128 113 122T131 109Q182 77 246 63T371 48Q393 48 424 51T484 65T533 94T553 144Q553 168 542 184T514 211T476 226T434 232Q395 234 357 234T279 236Q247 237 216 245T159 271T117 316T101 379Q101 424 122 453T177 501T251 526T327 534Q395 534 465 517T592 462L561 401Q528 421 503 433T452 453T397 462T330 465Q310 465 283 462T230 450T187 425T169 380Q169 359 179 345T204 321T239 308T275 304L419 301Q455 300 491 292T556 264T603 216T622 145ZM399 575H287L211 682H287L342 625L391 682H479L399 575Z"  />
<glyph unicode="&#x178;" horiz-adv-x="778" d="M426 325V0H357V325L18 745H107L392 391L673 745H759L426 325ZM429 810V903H521V810H429ZM252 810V903H344V810H252Z"  />
<glyph unicode="&#x17D;" horiz-adv-x="685" d="M56 0L19 72L573 677H60V745H628L667 674L110 71H672V0H56ZM422 802H310L234 909H310L365 852L414 909H502L422 802Z"  />
<glyph unicode="&#x17E;" horiz-adv-x="537" d="M60 0L20 62L407 447H46V516H471L510 455L123 69H518V0H60ZM343 575H231L155 682H231L286 625L335 682H423L343 575Z"  />
<glyph unicode="&#x192;" horiz-adv-x="704" d="M582 606Q579 606 572 607T555 608T535 609T516 610Q483 610 461 604T426 586T405 555T393 512L385 464H544L535 405H376L336 118Q327 53 317 12T296 -56T270 -97T239 -122Q216 -136 176 -141T59 -146L80 -81Q85 -82 99 -82T125 -83Q154 -83 182 -74T226 -37Q240 -13 249 28T266 122L305 405H168L179 464H313L325 529Q339 601 384 634T501 668Q512 668 526 668T553 666T576 664T592 663L582 606Z"  />
<glyph unicode="&#x2C6;" horiz-adv-x="370" d="M232 575L183 632L128 575H51L126 682H238L319 575H232Z"  />
<glyph unicode="&#x2C7;" horiz-adv-x="370" d="M239 575H127L51 682H127L182 625L231 682H319L239 575Z"  />
<glyph unicode="&#x2DA;" horiz-adv-x="370" d="M299 685Q299 662 290 642T266 606T230 583T186 574Q162 574 142 583T105 607T80 643T71 688Q71 712 80 732T105 768T141 793T186 802Q210 802 230 793T266 767T290 730T299 685ZM245 685Q245 710 228 728T185 747Q160 747 143 730T126 688Q126 664 142 647T184 629Q208 629 226 644T245 685Z"  />
<glyph unicode="&#x2DC;" horiz-adv-x="370" d="M352 684Q351 661 347 642T334 609T308 587T266 579Q244 579 224 584T185 594T148 605T113 610Q94 610 87 601T77 574H18Q18 596 22 615T37 649T63 672T104 681Q125 681 144 676T181 664T217 653T252 647Q271 647 280 656T292 684H352H352Z"  />
<glyph unicode="&#x2013;" horiz-adv-x="500" d="M-5 228V285H505V228H-5Z"  />
<glyph unicode="&#x2014;" horiz-adv-x="1000" d="M-5 228V285H1006V228H-5Z"  />
<glyph unicode="&#x2018;" horiz-adv-x="389" d="M255 547Q255 524 237 510T197 495Q177 495 162 504T136 527T120 560T114 597Q114 626 121 648T140 688T168 720T201 748Q205 751 213 756T225 762Q230 762 235 756T240 743Q240 738 233 734T222 727Q211 720 201 710T182 687T168 662T162 636Q162 622 172 617T196 612Q222 612 238 593T255 547Z"  />
<glyph unicode="&#x2019;" horiz-adv-x="389" d="M274 660Q274 631 267 609T248 569T220 537T187 509Q183 506 175 501T163 495Q158 495 153 501T148 514Q148 519 155 523T166 530Q176 537 187 547T206 570T220 595T226 621Q226 635 216 640T192 645Q166 645 150 664T133 710Q133 733 151 747T191 762Q210 762 225 753T252 730T268 697T274 660Z"  />
<glyph unicode="&#x201A;" horiz-adv-x="389" d="M265 8Q265 -21 258 -43T239 -83T211 -115T178 -143Q174 -146 166 -151T154 -157Q149 -157 144 -151T139 -138Q139 -133 146 -129T157 -122Q167 -115 178 -105T197 -82T211 -57T217 -31Q217 -17 207 -12T183 -7Q157 -7 141 12T124 58Q124 81 142 95T182 110Q201 110 216 101T243 78T259 45T265 8Z"  />
<glyph unicode="&#x201C;" horiz-adv-x="667" d="M518 547Q518 524 500 510T460 495Q440 495 425 504T399 527T383 560T377 597Q377 626 384 648T403 688T431 720T464 748Q468 751 476 756T488 762Q493 762 498 756T503 743Q503 738 496 734T485 727Q474 720 464 710T445 687T431 662T425 636Q425 622 435 617T459 612Q485 612 501 593T518 547ZM286 547Q286 524 268 510T228 495Q208 495 193 504T167 527T151 560T145 597Q145 626 152 648T171 688T199 720T232 748Q236 751 244 756T256 762Q261 762 266 756T271 743Q271 738 264 734T253 727Q242 720 232 710T213 687T199 662T193 636Q193 622 203 617T227 612Q253 612 269 593T285 547H286Z"  />
<glyph unicode="&#x201D;" horiz-adv-x="667" d="M526 660Q526 631 519 609T500 569T472 537T439 509Q435 506 427 501T415 495Q410 495 405 501T400 514Q400 519 407 523T418 530Q428 537 439 547T458 570T472 595T478 621Q478 635 468 640T444 645Q418 645 402 664T385 710Q385 733 403 747T443 762Q462 762 477 753T504 730T520 697T526 660ZM294 660Q294 631 287 609T268 569T240 537T207 509Q203 506 195 501T183 495Q178 495 173 501T168 514Q168 519 175 523T186 530Q196 537 207 547T226 570T240 595T246 621Q246 635 236 640T212 645Q186 645 170 664T153 710Q153 733 171 747T211 762Q230 762 245 753T271 730T287 697T293 660H294Z"  />
<glyph unicode="&#x201E;" horiz-adv-x="667" d="M519 8Q519 -21 512 -43T493 -83T465 -115T432 -143Q428 -146 420 -151T408 -157Q403 -157 398 -151T393 -138Q393 -133 400 -129T411 -122Q421 -115 432 -105T451 -82T465 -57T471 -31Q471 -17 461 -12T437 -7Q411 -7 395 12T378 58Q378 81 396 95T436 110Q455 110 470 101T497 78T513 45T519 8ZM287 8Q287 -21 280 -43T261 -83T233 -115T200 -143Q196 -146 188 -151T176 -157Q171 -157 166 -151T161 -138Q161 -133 168 -129T179 -122Q189 -115 200 -105T219 -82T233 -57T239 -31Q239 -17 229 -12T205 -7Q179 -7 163 12T146 58Q146 81 164 95T204 110Q223 110 238 101T264 78T280 45T286 8H287Z"  />
<glyph unicode="&#x2020;" horiz-adv-x="593" d="M330 466V0H264V466H78V534H263V745H329V534H515V466H330Z"  />
<glyph unicode="&#x2021;" horiz-adv-x="593" d="M330 175V-1H264V175H78V243H264V506H78V574H263V745H329V574H515V506H329V243H515V175H330Z"  />
<glyph unicode="&#x2022;" horiz-adv-x="500" d="M367 372Q367 348 358 327T333 291T296 266T251 257Q227 257 206 266T169 290T144 327T135 372Q135 396 144 417T169 454T206 479T251 489Q275 489 296 480T333 455T358 418T367 372Z"  />
<glyph unicode="&#x2026;" horiz-adv-x="1111" d="M990 46Q990 20 971 2T926 -17Q900 -17 881 1T862 46Q862 72 880 91T925 110Q952 110 971 91T990 46ZM620 46Q620 20 601 2T556 -17Q530 -17 511 1T492 46Q492 72 510 91T555 110Q582 110 600 91T619 46H620ZM249 46Q249 20 230 2T185 -17Q159 -17 140 1T121 46Q121 72 139 91T184 110Q211 110 229 91T248 46H249Z"  />
<glyph unicode="&#x2030;" horiz-adv-x="1765" d="M1697 193Q1697 143 1676 105T1621 40T1542 -1T1452 -15Q1406 -15 1362 -1T1284 39T1228 104T1206 193Q1206 242 1227 281T1283 346T1362 386T1452 400Q1497 400 1541 386T1619 346T1675 281T1697 193ZM1152 193Q1152 143 1131 105T1076 40T997 -1T907 -15Q861 -15 817 -1T739 39T683 104T661 193Q661 242 682 281T738 346T817 386T907 400Q952 400 996 386T1074 346T1130 281T1151 193H1152ZM369 -39H288L842 718H923L369 -39ZM551 461Q551 411 530 373T475 308T396 267T306 253Q260 253 216 267T138 307T82 372T60 461Q60 510 81 549T137 614T216 654T306 668Q351 668 395 654T473 614T529 549T551 461ZM1623 193Q1623 226 1609 252T1570 297T1516 326T1452 336Q1419 336 1388 326T1334 298T1296 253T1281 193Q1281 159 1295 133T1333 88T1388 60T1452 50Q1485 50 1516 59T1570 87T1608 132T1623 193ZM1078 193Q1078 226 1064 252T1025 297T971 326T907 336Q874 336 843 326T789 298T751 253T736 193Q736 159 750 133T788 88T843 60T907 50Q940 50 970 59T1025 87T1063 132T1077 193H1078ZM477 461Q477 494 463 520T424 565T370 594T306 604Q273 604 243 594T188 566T150 521T135 461Q135 427 149 401T187 356T242 328T306 318Q339 318 369 327T424 355T462 400T476 461H477Z"  />
<glyph unicode="&#x2039;" horiz-adv-x="315" d="M189 67L55 263L189 456H261L146 263L261 67H189Z"  />
<glyph unicode="&#x203A;" horiz-adv-x="315" d="M126 67H54L169 263L54 456H126L260 263L126 67Z"  />
<glyph unicode="&#x20AC;" horiz-adv-x="889" d="M827 120Q755 53 679 18T505 -17Q445 -17 391 1T293 51T216 129T167 228H56L65 277H155Q154 287 154 300T153 324Q153 331 153 340T154 356H56L67 407H163Q177 465 209 513T286 595T389 649T509 668Q603 668 679 638T824 537L778 488Q720 548 657 573T514 599Q464 599 420 586T339 547T275 486T234 407H626L615 356H223Q222 349 222 340T221 324Q221 313 222 300T225 277H601L590 228H241Q256 189 283 157T345 102T422 66T509 53Q588 53 654 84T780 170L827 120H827Z"  />
<glyph unicode="&#x2122;" horiz-adv-x="741" d="M623 457V662L511 490L399 662V457H353V746H400L511 569L623 746H669V457H623ZM195 703V457H149V703H45V746H298V703H195Z"  />


</font>
</defs>
</svg>
