<?xml  version="1.0" encoding="UTF-8"?>
<!DOCTYPE svg PUBLIC "-//W3C//DTD SVG 1.0//EN" "http://www.w3.org/TR/2001/REC-SVG-20010904/DTD/svg10.dtd" >
<svg xmlns="http://www.w3.org/2000/svg" >
<metadata>
<version>1.0</version>
<id><![CDATA[Sackers Gothic W01 Medium]]></id>
<vendor>Monotype Imaging Inc.</vendor>
<credits>
<name>Fonts.com WebFonts</name>
<URL>http://webfonts.fonts.com</URL>
<role>Home of the Web fonts</role>
</credits>
<license>
<URL>http://webfonts.fonts.com/Legal</URL>
</license>
<copyright><![CDATA[Copyright 1994, 2003 Monotype Imaging, Inc. All rights reserved.]]></copyright>
<trademark><![CDATA["Sackers" is a trademark of Monotype Imaging, Inc. and may be registered in certain jurisdictions.]]></trademark>
<licensee>
<name></name>
</licensee>
</metadata>
<defs >
<font horiz-adv-x="725" id="a4ece7c2-be4a-4681-bb11-d02bfc53c66e">
<font-face font-family="" panose-1="2 11 6 4 2 2 2 6 2 4" ascent="1033" descent="-250" units-per-em="1000" alphabetic="0">
</font-face>
<missing-glyph horiz-adv-x="0" />

<glyph unicode="&#xA;" />
<glyph unicode="&#xD;" />
<glyph unicode=" " horiz-adv-x="370" />
<glyph unicode="!" horiz-adv-x="352" d="M208 178H144L123 747H231L208 178ZM240 45Q240 19 222 1T177 -18Q151 -18 132 0T113 45Q113 71 131 90T176 109Q202 109 221 90T240 45Z"  />
<glyph unicode="&quot;" horiz-adv-x="462" d="M341 504H286L264 757H363L341 504ZM176 504H121L99 757H198L176 504Z"  />
<glyph unicode="#" horiz-adv-x="648" d="M618 407H488L441 283H570L547 217H417L340 10H268L345 217H199L121 10H49L127 217H-1L21 283H150L197 407H69L92 476H221L286 649H358L293 476H440L505 649H577L512 476H641L618 407ZM269 407L222 283H369L416 407H269Z"  />
<glyph unicode="$" horiz-adv-x="889" d="M770 203Q770 143 745 102T681 34T595 -4T501 -16V-88H423V-17Q375 -15 334 -6T257 22T186 65T119 124L175 191Q204 162 231 141T287 106T349 83T423 72V297H401Q357 297 316 303T238 333Q203 356 186 391T169 468Q169 522 191 560T248 623T329 660T422 674V752H500V674Q566 670 625 648T735 582L685 510Q660 528 640 540T598 562T554 577T500 588V389Q549 389 597 383T684 356T746 300T770 203ZM423 590Q395 588 372 583Q350 578 331 570T296 549T272 518T263 475Q263 446 277 429T314 404T365 393T422 390L423 590ZM673 200Q673 234 655 253T611 281T555 293T500 297V74Q523 74 553 80T609 100T654 139T673 200Z"  />
<glyph unicode="%" horiz-adv-x="1204" d="M1140 191Q1140 142 1120 104T1066 39T989 -2T900 -16Q856 -16 814 -2T738 39T685 104T664 189Q664 239 683 278T736 344T812 385T902 400Q948 400 991 386T1067 344T1120 278T1140 191ZM383 -40H298L848 718H934L383 -40ZM539 460Q539 410 519 372T466 307T389 266T299 252Q255 252 213 266T137 308T84 373T63 458Q63 507 82 546T135 613T211 654T301 669Q346 669 389 655T465 613T519 547T539 460ZM1063 192Q1063 224 1050 249T1014 293T962 320T901 330Q868 330 839 321T789 293T754 249T741 190Q741 158 755 133T792 91T844 64T904 55Q935 55 964 64T1015 91T1050 134T1063 192ZM463 460Q463 492 450 517T413 560T361 587T300 597Q268 597 239 588T188 561T153 518T140 459Q140 427 154 402T191 359T243 332T304 323Q335 323 363 332T414 359T449 402T462 460H463Z"  />
<glyph unicode="&amp;" horiz-adv-x="870" d="M680 0L624 59Q591 38 564 24T510 2T453 -10T383 -14Q335 -14 284 -2T191 37T122 103T95 200Q95 243 113 276T160 333T225 373T299 399Q278 422 261 456T243 527Q243 564 258 591T301 635T364 660T441 668Q507 668 563 654T649 619L609 538Q599 545 582 553T543 568T496 580T445 585Q424 585 404 582T368 572T341 554T331 526Q331 505 341 489T362 462L630 183Q637 189 650 205T679 239T706 276T724 304L796 257Q791 246 778 226T749 185T718 146T692 118L803 0H680ZM363 331Q341 325 311 315T252 289T203 251T183 200Q183 165 204 141T257 102T323 81T386 74Q436 74 478 85T560 127L363 331Z"  />
<glyph unicode="&apos;" horiz-adv-x="333" d="M199 504H144L122 757H221L199 504Z"  />
<glyph unicode="(" horiz-adv-x="426" d="M354 728Q328 710 297 675T238 592T192 488T173 371Q173 315 191 260T235 156T292 71T348 15L307 -22Q262 14 223 59T155 155T108 261T91 374Q91 432 108 489T157 597T230 692T323 767L354 728H354Z"  />
<glyph unicode=")" horiz-adv-x="426" d="M328 374Q328 317 311 262T265 155T197 59T112 -22L72 15Q96 34 126 71T183 156T228 259T246 371Q246 431 228 487T182 591T123 674T65 728L96 767Q146 736 188 693T262 598T310 489T328 374Z"  />
<glyph unicode="*" horiz-adv-x="481" d="M384 452L273 515V387H216V515L101 450L72 500L185 565L74 629L102 678L216 615V745H273V615L383 679L412 629L300 565L412 501L384 452Z"  />
<glyph unicode="+" horiz-adv-x="889" d="M481 198V-1H409V197H207V269H408V468H480V270H682V198H481Z"  />
<glyph unicode="&#x2c;" horiz-adv-x="389" d="M302 0Q302 -31 293 -56T271 -100T241 -135T212 -160Q208 -164 198 -169T183 -175Q161 -175 161 -150Q161 -139 163 -133T175 -122Q195 -110 213 -89T232 -41Q232 -28 227 -24T211 -19Q182 -19 166 0T149 49Q149 74 169 91T213 109Q234 109 251 99T279 74T296 39T302 0Z"  />
<glyph unicode="-" horiz-adv-x="610" d="M139 209V305H471V209H139Z"  />
<glyph unicode="." horiz-adv-x="370" d="M254 45Q254 16 234 -3T186 -23Q157 -23 137 -4T116 45Q116 73 136 93T184 114Q213 114 233 94T254 45Z"  />
<glyph unicode="/" horiz-adv-x="630" d="M136 -19H46L489 747H578L136 -19Z"  />
<glyph unicode="0" horiz-adv-x="889" d="M828 325Q828 242 798 179T715 72T593 7T445 -16Q368 -16 298 6T176 73T92 180T61 327Q61 408 91 471T173 578T294 645T441 668Q519 668 589 646T712 580T796 472T828 325ZM739 325Q739 390 714 437T646 516T550 563T436 579Q379 579 327 563T236 515T173 436T150 327Q150 263 174 216T239 137T333 89T446 73Q504 73 557 88T650 135T715 214T739 325Z"  />
<glyph unicode="1" horiz-adv-x="611" d="M263 0V655H351V0H263Z"  />
<glyph unicode="2" horiz-adv-x="889" d="M147 0Q147 8 147 17T146 34Q146 99 162 159T211 266T296 345T417 384Q451 388 484 391T552 398Q568 400 586 405T620 419T646 442T656 476Q656 510 635 530T584 562T521 578T462 582Q422 582 390 578T328 565T268 543T204 511L163 590Q206 614 240 629T307 654T378 668T464 672Q509 672 558 663T649 631T717 571T744 478Q744 438 729 408T687 356T627 323T557 307Q522 303 488 300T419 293Q375 288 344 271T292 227T259 164T240 88H746V0H147Z"  />
<glyph unicode="3" horiz-adv-x="889" d="M794 185Q794 144 776 113T728 59T660 23T582 0T504 -12T434 -16Q386 -16 340 -11T247 8Q222 15 203 22T167 39T132 59T93 85L141 158Q178 134 212 118T280 92T352 78T435 73Q492 73 549 82Q567 85 593 92T644 110T687 139T705 181Q705 205 691 223T657 253T613 274T570 287Q544 293 518 295T466 298H401V386H466Q487 386 520 390T584 405T639 434T662 483Q662 514 636 533T574 562T502 575T444 578Q408 578 380 574T325 563T273 544T214 518L173 595Q209 614 241 627T305 650T371 663T447 667Q488 667 540 659T640 631T719 577T751 488Q751 442 728 409T670 347Q694 334 716 319T756 283T784 239T794 185Z"  />
<glyph unicode="4" horiz-adv-x="889" d="M669 168V0H581V168H105L62 255L576 658H669V255H822V168H669ZM581 554L199 255H581V554Z"  />
<glyph unicode="5" horiz-adv-x="889" d="M775 208Q775 166 757 133T711 74T646 30T573 2Q538 -8 503 -12T431 -16Q375 -16 334 -12T255 4T180 34T95 82L147 154Q202 121 274 97T422 73Q477 73 531 85Q553 90 580 100T631 125T671 162T687 211Q687 248 662 272T602 311T529 332T462 338Q420 338 386 334T321 320T258 297T189 264L129 316V654H726V566H217V376Q251 388 280 397T337 413T396 423T463 427Q498 427 533 423T601 407Q635 396 666 378T722 335T760 279T775 208Z"  />
<glyph unicode="6" horiz-adv-x="889" d="M813 201Q813 158 793 125T741 66T671 24T596 -2Q531 -17 466 -17Q390 -17 321 5T198 69T113 174T81 319Q81 400 115 464T206 574T334 644T482 668Q526 668 565 662T640 643T710 611T781 566L731 496Q700 516 672 531T614 557T552 573T483 578Q426 578 371 562T273 513T201 434T170 324Q215 348 251 363T323 388T397 402T488 406Q535 406 591 397T697 364T780 301T813 201ZM724 202Q724 224 710 241T676 272T632 293T591 305Q565 312 539 314T485 317Q438 317 401 312T330 297T262 270T187 231Q202 188 231 158T298 109T379 82T464 73Q490 73 515 75T565 83Q586 87 613 96T665 120T707 155T724 202Z"  />
<glyph unicode="7" horiz-adv-x="907" d="M328 0H222L616 566H132V655H683L737 587L328 0Z"  />
<glyph unicode="8" horiz-adv-x="889" d="M802 177Q802 135 784 104T735 51T666 16T587 -5T507 -15T437 -18Q405 -18 367 -15T290 -3T217 20T154 57T111 111T94 186Q94 216 105 241T134 287T176 323T227 349Q189 376 166 409T143 491Q143 549 173 584T247 638T344 663T440 670Q470 670 505 668T575 659T642 640T700 607T740 558T755 489Q755 441 733 408T671 349Q698 336 722 320T764 282T792 235T802 177ZM666 488Q666 521 640 540T577 568T504 579T445 582Q425 582 389 580T318 568T257 541T231 492Q231 458 257 438T320 407T395 393T457 389Q479 389 514 392T583 406T641 436T666 488ZM713 181Q713 206 696 225T653 257T600 279T553 290Q500 299 447 299Q421 299 377 295T289 278T214 242T182 181Q182 157 197 139T236 109T290 90T349 78T405 73T447 71Q463 71 489 72T544 77T604 88T658 108T698 138T713 181Z"  />
<glyph unicode="9" horiz-adv-x="889" d="M812 339Q812 257 778 192T687 80T558 10T409 -15Q326 -15 248 12Q206 26 177 43T112 86L163 158Q197 135 224 119T280 94T339 80T411 75Q466 75 521 91T620 140T693 220T724 328Q678 304 642 289T571 264T496 252T406 248Q359 248 303 257T198 290T116 352T83 451Q83 492 101 525T149 582T214 624T285 651Q320 661 356 665T428 669Q502 669 571 648T694 585T780 482T812 339ZM708 421Q689 465 660 495T595 544T516 571T428 580Q374 580 323 568Q303 563 277 554T228 531T188 497T172 452Q172 417 198 395T261 359T337 341T401 336Q450 336 488 340T560 354T630 380T708 421Z"  />
<glyph unicode=":" horiz-adv-x="370" d="M255 430Q255 401 235 381T186 361Q157 361 138 381T118 429Q118 457 138 477T186 498Q215 498 235 478T255 430ZM252 45Q252 16 232 -3T184 -23Q155 -23 135 -4T115 45Q115 74 135 93T184 113Q213 113 232 93T251 45H252Z"  />
<glyph unicode=";" horiz-adv-x="389" d="M257 430Q257 401 237 381T188 361Q159 361 140 380T120 429Q120 457 139 477T188 498Q216 498 236 479T257 430ZM276 0Q276 -31 267 -56T245 -100T215 -135T186 -160Q182 -164 172 -169T157 -175Q135 -175 135 -150Q135 -139 137 -133T149 -122Q169 -110 187 -89T206 -41Q206 -28 201 -24T185 -19Q156 -19 140 0T123 49Q123 74 143 91T187 109Q208 109 225 99T253 74T270 39T276 0Z"  />
<glyph unicode="&lt;" horiz-adv-x="889" d="M247 193V268L642 440V363L335 231L642 98V21L247 193Z"  />
<glyph unicode="=" horiz-adv-x="889" d="M207 277V350H682V278L207 277ZM207 117V190H682V117H207Z"  />
<glyph unicode="&gt;" horiz-adv-x="889" d="M247 21V98L554 230L247 363V440L642 268V193L247 21Z"  />
<glyph unicode="?" horiz-adv-x="593" d="M508 577Q508 515 477 471T399 392L298 316Q284 305 279 291T274 259V185H191V259Q191 276 192 291T197 319T209 344T232 367L338 449Q367 472 391 503T415 574Q415 608 397 629T351 661T292 677T234 681Q188 681 150 676T67 657V744Q112 756 158 760T251 764Q299 764 345 757T428 728T486 671T508 577ZM296 45Q296 19 278 1T233 -18Q207 -18 188 0T169 45Q169 71 187 90T232 109Q259 109 277 91T296 45Z"  />
<glyph unicode="@" horiz-adv-x="1074" d="M992 350Q992 303 976 265T934 198T873 155T801 140Q739 140 707 155T659 191Q640 169 605 155T514 140Q487 140 458 146T405 166T366 203T350 261Q350 299 366 322T410 358T478 375T565 379H637Q637 390 636 399T630 418Q621 439 598 447T543 455Q501 455 479 444T448 399H371Q376 439 395 462T439 498T495 514T552 518Q641 518 679 479T718 362V280Q718 243 740 226T803 208Q824 208 843 218T877 246T900 291T909 351Q909 424 880 478T800 566T681 618T533 635Q461 635 397 616T286 559T210 463T182 329Q182 251 211 192T289 94T403 34T543 14Q581 14 610 19T662 31T701 48T728 66L777 3Q765 -6 744 -18T693 -40T626 -58T544 -66Q458 -66 378 -40T234 35T133 155T95 319Q95 417 129 491T222 614T362 689T537 714Q630 714 713 692T858 624T956 511T992 350ZM573 316Q553 316 532 316T491 314Q459 312 443 301T427 259Q427 244 434 234T454 217T482 208T514 205Q570 205 603 229T637 309L638 316H573Z"  />
<glyph unicode="A" horiz-adv-x="833" d="M715 0L593 257H233L115 0H17L373 747H463L813 0H715ZM417 640L277 344H554L417 640Z"  />
<glyph unicode="B" horiz-adv-x="907" d="M841 206Q841 161 823 122T771 52Q751 35 732 25T690 9T639 2T571 0H153V747H571Q620 747 663 735T738 698T788 634T807 542Q807 492 790 457T734 390Q785 359 813 313T841 206ZM718 547Q718 580 701 608T648 650Q638 654 621 656T576 659H242V426H571Q601 426 627 432T674 453T706 490T718 547ZM753 207Q753 247 737 272T696 312T637 332T571 338H242V88H571Q605 88 628 89T666 95T692 104T712 118Q733 135 743 158T753 207Z"  />
<glyph unicode="C" horiz-adv-x="944" d="M876 130Q837 91 797 63T714 17T622 -10T516 -19Q430 -19 354 9T222 88T133 211T100 373Q100 460 131 532T216 656T345 737T504 766Q608 766 700 729T865 617L802 556Q737 613 664 646T499 679Q435 679 379 656T280 592T213 495T188 375Q188 304 214 248T287 151T393 90T521 69Q612 69 682 100T816 197L876 130H876Z"  />
<glyph unicode="D" horiz-adv-x="926" d="M864 371Q864 302 839 235T769 116T663 32T528 0H150V747H518Q586 747 638 727T729 674T793 600T835 517T857 437T864 371ZM776 374Q776 434 757 486T703 576T621 637T518 659H238V88H528Q583 88 628 113T707 180T758 272T776 374Z"  />
<glyph unicode="E" horiz-adv-x="852" d="M151 0V747H767V659H240V431H517V343H240V88H789V0H151Z"  />
<glyph unicode="F" horiz-adv-x="815" d="M235 660V422H560V333H235V0H147V747H755V660H235Z"  />
<glyph unicode="G" horiz-adv-x="907" d="M843 206Q843 165 826 132T781 73T718 29T648 0Q582 -19 510 -19Q424 -19 349 9T217 88T129 211T96 372Q96 460 129 532T218 655T350 734T510 762Q560 762 603 753T684 727T757 684T828 623L768 560Q738 587 710 608T650 644T585 666T508 674Q442 674 383 652T280 591T209 495T183 371Q183 302 209 246T280 151T384 90T510 69Q556 69 601 78Q625 83 652 93T702 120T740 159T755 212V317H497V405H843V206H843Z"  />
<glyph unicode="H" horiz-adv-x="963" d="M721 0V346H241V0H152V747H241V434H721V747H810V0H721Z"  />
<glyph unicode="I" horiz-adv-x="389" d="M153 0V748H241V0H153Z"  />
<glyph unicode="J" horiz-adv-x="815" d="M660 270Q660 198 635 145T565 55T461 1T335 -17Q275 -17 215 0T108 57Q76 85 58 116T21 186L100 226Q121 184 142 155T190 108T252 81T336 72Q383 72 426 83T501 119T553 180T572 270V747H660V270H660Z"  />
<glyph unicode="K" horiz-adv-x="833" d="M711 0L447 419L240 222V0H151V747H240V339L655 747H772L510 485L816 0H711Z"  />
<glyph unicode="L" horiz-adv-x="722" d="M149 0V747H237V88H708V0H149Z"  />
<glyph unicode="M" horiz-adv-x="1037" d="M799 0V572L515 63L236 572V0H148V747H238L515 242L801 747H888V0H799Z"  />
<glyph unicode="N" horiz-adv-x="963" d="M726 0L239 608V0H151V747H239L726 131V747H815V0H726Z"  />
<glyph unicode="O" horiz-adv-x="1000" d="M901 375Q901 289 869 217T782 93T653 11T495 -19Q413 -19 340 10T213 92T126 216T94 370Q94 454 126 526T215 651T344 734T501 764Q583 764 656 735T783 654T869 531T901 375ZM812 373Q812 438 788 493T721 589T623 652T502 675Q437 675 379 652T278 589T209 492T183 370Q183 305 208 250T277 155T377 92T497 69Q562 69 619 91T719 154T787 251T812 373Z"  />
<glyph unicode="P" horiz-adv-x="852" d="M795 534Q795 486 777 440T720 363Q685 335 644 327T559 318H233V0H145V747H559Q611 747 654 735T729 696T778 630T795 534ZM707 535Q707 567 695 596T654 643Q641 651 621 655T559 659H233V407H559Q626 407 666 435T707 535Z"  />
<glyph unicode="Q" horiz-adv-x="1000" d="M902 371Q902 267 858 188T731 48L811 -36L733 -85L648 5Q608 -8 575 -14T500 -20Q417 -20 345 9T218 91T133 215T102 371Q102 455 133 526T219 650T346 733T502 763Q585 763 658 733T785 651T870 527T902 371ZM814 373Q814 438 790 493T723 588T624 652T503 675Q439 675 382 652T282 589T214 493T189 372Q189 305 214 249T282 153T383 91T507 68Q527 68 542 69T577 77L529 129L608 176L668 114Q738 159 776 223T814 373Z"  />
<glyph unicode="R" horiz-adv-x="889" d="M828 527Q828 478 808 433T750 355Q722 332 697 324T636 309L810 0H709L536 309H239V0H151V747H525Q570 747 601 746T655 741T697 728T737 706Q780 677 804 628T828 527ZM740 526Q740 563 727 588T692 629T640 652T577 659H239V397H561Q586 397 605 397T639 400T666 407T689 420Q714 437 727 466T740 526Z"  />
<glyph unicode="S" horiz-adv-x="833" d="M775 217Q775 149 740 104T653 31T538 -7T421 -19Q361 -19 310 -10T214 18T126 68T42 142L105 204Q142 168 176 143T247 101T326 78T420 70Q443 70 471 72T529 81T587 99T637 126T672 166T686 220Q686 254 671 278T630 317T575 339T517 347L359 349Q324 349 297 351T248 359T209 371T174 390Q137 414 117 454T97 538Q97 600 128 643T207 712T311 751T419 763Q511 763 586 736T735 653L680 584Q648 607 618 624T556 652T490 668T416 674Q386 674 347 668T271 645T211 603T186 538Q186 515 198 494T230 461Q243 454 255 450T283 443T323 439T382 437L493 436Q532 436 571 431T646 411Q675 399 698 379T739 334T765 278T775 217Z"  />
<glyph unicode="T" horiz-adv-x="759" d="M425 659V0H337V659H64V747H699V659H425Z"  />
<glyph unicode="U" horiz-adv-x="963" d="M815 300Q815 252 810 203T778 111Q755 74 722 49T649 9T566 -12T483 -19Q417 -19 355 -4T241 55Q211 80 194 107T167 164T156 227T153 298V747H241V300Q241 270 242 247T247 206T257 173T276 144Q294 122 318 108T370 86T427 74T483 70Q511 70 542 73T602 85T656 110T698 152Q705 162 710 173T719 200T725 241T727 300V747H815V300H815Z"  />
<glyph unicode="V" horiz-adv-x="833" d="M454 0H377L21 747H120L417 126L712 747H811L454 0Z"  />
<glyph unicode="W" horiz-adv-x="1000" d="M746 0H665L503 576L352 0H270L15 747H106L306 156L459 747H543L709 156L897 747H988L746 0Z"  />
<glyph unicode="X" horiz-adv-x="778" d="M653 0L393 336L130 0H17L337 407L73 747H185L393 477L606 747H715L450 407L766 0H653Z"  />
<glyph unicode="Y" horiz-adv-x="759" d="M424 344V0H336V344L19 747H133L382 431L631 747H745L424 344Z"  />
<glyph unicode="Z" horiz-adv-x="704" d="M61 0L23 76L543 659H61V747H631L669 674L149 88H676V0H61Z"  />
<glyph unicode="[" horiz-adv-x="426" d="M137 0V747H301V687H216V60H301V0H137Z"  />
<glyph unicode="\" horiz-adv-x="630" d="M499 -19L57 747H146L589 -19H499Z"  />
<glyph unicode="]" horiz-adv-x="426" d="M137 0V60H222V687H137V747H301V0H137Z"  />
<glyph unicode="^" horiz-adv-x="889" d="M577 352L445 597L312 352H234L407 668H482L655 352H577Z"  />
<glyph unicode="_" horiz-adv-x="500" d="M0 -125V-76H500V-125H0Z"  />
<glyph unicode="`" horiz-adv-x="370" d="M197 575L85 705H205L285 575H197Z"  />
<glyph unicode="a" horiz-adv-x="685" d="M564 0L498 121H182L118 0H18L298 518H386L668 0H564ZM341 419L228 208H454L341 419Z"  />
<glyph unicode="b" horiz-adv-x="741" d="M678 161Q678 127 666 96T628 41Q597 12 560 6T481 0H153V518H481Q517 518 548 511T602 488T638 444T652 377Q652 347 646 329T622 286Q651 259 664 230T678 161ZM564 374Q564 399 546 415Q541 419 537 422T526 426T509 429T481 430H243V319H481Q496 319 511 320T537 327T556 344T564 374ZM589 160Q589 194 565 215Q559 220 554 223T540 228T519 230T485 231H243V88H481Q523 88 539 92T568 109Q589 130 589 160Z"  />
<glyph unicode="c" horiz-adv-x="741" d="M680 63Q619 21 556 2T418 -18Q356 -18 298 -1T194 50T122 136T95 256Q95 321 120 372T188 459T287 514T405 533Q481 533 547 508T674 436L627 362Q600 381 575 396T523 421T469 438T406 444Q364 444 324 432T253 396T202 337T183 256Q183 208 203 173T257 116T331 82T416 71Q480 71 534 89T641 144L680 63H680Z"  />
<glyph unicode="d" horiz-adv-x="759" d="M697 261Q697 201 678 153T625 71T542 19T433 0H149V518H433Q497 518 546 498T629 443T680 361T697 261ZM609 260Q609 345 561 387T433 430H237V88H433Q512 88 560 133T609 260Z"  />
<glyph unicode="e" horiz-adv-x="685" d="M156 0V518H612V430H244V311H446V223H244V88H622V0H156Z"  />
<glyph unicode="f" horiz-adv-x="667" d="M243 430V311H457V223H243V0H155V518H606V430H243Z"  />
<glyph unicode="g" horiz-adv-x="722" d="M663 77Q632 54 602 37T540 9T474 -9T400 -15Q340 -15 284 3T185 57T116 143T90 259Q90 325 116 376T187 461T289 514T407 532Q478 532 535 511T649 447L598 376Q571 395 549 408T505 429T458 440T400 444Q359 444 319 432T248 397T198 339T179 259Q179 213 198 179T248 121T320 85T401 73Q429 73 450 75T491 83T530 98T574 123V201H425V290H663V77H663Z"  />
<glyph unicode="h" horiz-adv-x="796" d="M559 0V222H241V0H153V518H241V310H559V518H647V0H559Z"  />
<glyph unicode="i" horiz-adv-x="389" d="M152 0V518H240V0H152Z"  />
<glyph unicode="j" horiz-adv-x="648" d="M497 233Q497 192 494 166T486 122T473 92T455 68Q437 46 414 31T364 5T309 -10T254 -15Q173 -15 116 18T23 125L96 174Q122 119 160 97T259 74Q276 74 295 77T333 87T367 105T392 132Q402 149 405 169T409 233V518H497V233H497Z"  />
<glyph unicode="k" horiz-adv-x="667" d="M535 0L339 270L242 184V0H154V518H242V288L495 518H608L408 328L643 0H535Z"  />
<glyph unicode="l" horiz-adv-x="574" d="M151 0V518H239V88H555V0H151Z"  />
<glyph unicode="m" horiz-adv-x="870" d="M632 0V364L436 73L239 364V0H151V518H239L436 220L633 518H720V0H632Z"  />
<glyph unicode="n" horiz-adv-x="796" d="M563 0L239 385V0H151V518H240L563 134V518H651V0H563Z"  />
<glyph unicode="o" horiz-adv-x="833" d="M735 260Q735 193 708 142T635 55T532 1T412 -18Q352 -18 296 0T196 54T126 139T100 255V269Q100 335 128 384T201 467T303 516T420 533Q481 533 538 515T638 463T708 377T735 260ZM646 259Q646 307 627 341T575 398T502 432T419 443Q377 443 336 432T262 397T209 339T189 256Q189 209 208 175T258 117T330 83T413 72Q455 72 496 83T571 118T625 176T646 259Z"  />
<glyph unicode="p" horiz-adv-x="704" d="M646 351Q646 316 634 284T594 227Q578 213 565 205T534 194T493 189T435 188H234V0H146V518H463Q487 518 503 517T530 514T551 507T572 495Q609 473 627 433T646 351ZM558 351Q558 399 531 414T445 430H234V276H435Q470 276 493 279T531 290T552 312T558 351Z"  />
<glyph unicode="q" horiz-adv-x="833" d="M736 259Q736 168 681 96Q667 77 649 62T612 32L672 -32L586 -69L522 -5Q496 -10 470 -14T416 -19Q355 -19 298 -1T197 52T127 138T100 255Q100 322 127 373T200 460T304 514T424 532Q486 532 542 514T642 462T710 376T736 259ZM648 260Q648 308 629 342T577 399T503 433T420 444Q378 444 337 432T262 397T209 338T188 256Q188 210 207 175T259 116T331 80T413 68Q422 68 431 69T449 72L424 102L511 139L548 100Q595 129 621 166T648 260Z"  />
<glyph unicode="r" horiz-adv-x="722" d="M565 0L415 212H234V0H145V518H465Q504 518 540 511T603 487T646 440T662 365Q662 299 625 261T523 214L674 0H565ZM574 369Q574 402 553 416T469 430H234V300H474Q492 300 510 302T542 312T565 333T574 369Z"  />
<glyph unicode="s" horiz-adv-x="685" d="M617 162Q617 107 596 72T540 17T460 -10T369 -18Q284 -18 206 0T58 70L100 147Q132 127 161 113T221 89T284 75T355 70Q392 70 423 73T476 86T511 111T524 153Q524 163 522 173T515 192Q502 212 466 218T371 225Q313 225 278 226T222 230T189 237T166 246Q131 263 113 297T94 369Q94 416 115 447T170 498T245 525T326 533Q398 533 462 517T589 465L548 386Q520 402 495 413T443 432T388 443T328 446Q265 446 228 430T190 375Q190 366 192 357T199 340Q204 332 214 327T241 318T284 313T348 311Q401 311 449 307T535 288T595 243T617 162Z"  />
<glyph unicode="t" horiz-adv-x="611" d="M350 430V0H261V430H65V518H550V430H350Z"  />
<glyph unicode="u" horiz-adv-x="796" d="M652 226Q652 195 651 174T646 137T636 107T620 78Q603 52 578 35T523 6T462 -10T401 -15Q347 -15 295 -1T203 51Q184 69 173 89T157 132T151 177T149 226V518H238V226Q238 199 239 182T243 154T250 135T261 120Q273 106 291 97T329 83T369 76T407 74Q425 74 445 76T484 85T519 101T547 128Q551 134 554 141T560 159T563 186T564 226V518H652V226H652Z"  />
<glyph unicode="v" horiz-adv-x="667" d="M378 0H292L22 518H122L336 106L552 518H652L378 0Z"  />
<glyph unicode="w" horiz-adv-x="833" d="M628 0H539L417 373L288 0H202L18 518H112L244 143L374 518H463L585 143L723 518H817L628 0Z"  />
<glyph unicode="x" horiz-adv-x="648" d="M512 0L325 210L135 0H15L264 276L49 518H166L325 342L490 518H604L384 276L633 0H512Z"  />
<glyph unicode="y" horiz-adv-x="574" d="M331 233V0H243V233L16 518H128L287 317L446 518H558L331 233Z"  />
<glyph unicode="z" horiz-adv-x="537" d="M61 0L19 69L386 430H50V518H476L524 449L154 89H524V0H61Z"  />
<glyph unicode="{" horiz-adv-x="426" d="M325 -16Q280 -16 249 -9T199 13T172 53T164 113V269Q164 292 161 308T149 334T124 349T81 354V399Q105 399 121 402T146 415T160 441T164 484V632Q164 667 172 691T199 731T249 754T325 761V709Q302 709 287 706T262 694T249 671T245 634V498Q245 395 165 376Q206 365 225 336T245 255V111Q245 69 261 53T325 36V-16H325Z"  />
<glyph unicode="|" horiz-adv-x="351" d="M140 -250V750H211V-250H140Z"  />
<glyph unicode="}" horiz-adv-x="426" d="M355 346Q331 346 315 343T290 330T276 304T272 261V113Q272 78 264 54T237 14T187 -9T111 -16V36Q157 36 174 51T191 111V247Q191 350 271 369Q230 380 211 409T191 490V634Q191 676 175 692T111 709V761Q156 761 187 754T237 732T264 692T272 632V476Q272 453 275 437T287 411T312 396T355 391V346H355Z"  />
<glyph unicode="~" horiz-adv-x="889" d="M691 237Q681 224 667 211T636 187T601 169T567 162Q531 162 499 171T438 193T383 214T332 224Q318 224 306 218T284 202T264 183T247 166L200 223Q224 250 258 272T328 295Q360 295 389 286T445 266T501 246T562 237Q588 237 609 254T645 288L691 237H691Z"  />
<glyph unicode="&#xA0;" horiz-adv-x="370" />
<glyph unicode="&#xA1;" horiz-adv-x="352" d="M240 702Q240 676 222 657T177 638Q151 638 132 657T113 702Q113 728 131 746T176 765Q202 765 221 747T240 702ZM122 0L145 569H209L230 0H122Z"  />
<glyph unicode="&#xA2;" horiz-adv-x="889" d="M737 63Q683 25 625 5T501 -17V-106H424V-15Q368 -8 319 12T232 67T174 148T152 256Q152 315 173 363T232 447T318 504T424 531V624H501V531Q571 524 623 502T731 436L683 362Q639 394 598 414T501 442V72Q558 77 604 94T698 144L737 63ZM424 442Q386 436 353 422T295 384T255 328T240 256Q240 215 255 184T295 131T353 95T424 75V442Z"  />
<glyph unicode="&#xA3;" horiz-adv-x="889" d="M661 469Q661 502 647 525T612 561T562 581T505 587Q430 587 385 550T339 434V373H528V300H339V89H727V0H159V89H252V300H159V373H252V448Q252 507 272 549T328 617T410 656T512 668Q559 668 602 657T680 621T734 559T754 469H661Z"  />
<glyph unicode="&#xA4;" horiz-adv-x="753" d="M610 174Q599 163 588 152T566 129Q533 163 499 196Q475 178 445 168T382 158Q357 158 326 166T266 196Q249 179 232 163T198 129Q187 140 177 151T155 174Q172 190 189 206T223 239Q205 265 195 294T185 354Q185 385 194 415T223 469Q206 486 189 502T155 535Q166 546 176 557T198 580Q215 563 232 547T266 513Q296 534 326 542T382 551Q410 551 441 542T498 513Q515 530 532 546T566 580Q577 569 588 558T610 535Q593 518 576 502T542 469Q562 441 571 412T580 354Q580 292 542 239Q559 223 576 207T610 174ZM518 355Q518 385 507 409T476 452T433 479T383 489Q354 489 329 478T286 449T258 407T247 355Q247 328 257 303T286 260T329 230T382 219Q410 219 435 230T478 259T507 302T518 355Z"  />
<glyph unicode="&#xA5;" horiz-adv-x="889" d="M564 400H700V337H512L485 305V263H700V200H486V0H399V200H184V263H399V305L372 337H184V400H321L112 655H218L443 378L669 655H777L564 400Z"  />
<glyph unicode="&#xA6;" horiz-adv-x="351" d="M140 325V675H211V325H140ZM140 -175V175H211V-175H140Z"  />
<glyph unicode="&#xA7;" horiz-adv-x="593" d="M534 348Q534 331 528 316T513 289T494 268T473 251Q492 234 509 208T526 140Q526 101 510 71T462 19T388 -13T292 -24Q266 -24 237 -20T179 -6T123 19T75 56L106 128Q152 87 198 68T293 49Q323 49 350 53T397 69T429 97T441 140Q441 171 416 188T361 217L208 276Q182 286 160 299T122 330T97 372T87 426Q87 457 106 483T145 525Q127 542 117 567T106 621Q106 661 125 689T173 735T237 761T305 769Q331 769 359 764T414 750T467 725T512 691L482 620Q467 636 446 650T401 673T353 688T307 694Q287 694 267 691T230 680T203 658T192 623Q192 594 214 577T262 549L415 490Q439 481 460 468T498 436T524 396T534 348ZM447 343Q447 372 429 388T382 417L209 488Q194 480 183 465T172 429Q172 397 197 378T253 347L410 286Q426 295 436 310T447 343Z"  />
<glyph unicode="&#xA8;" horiz-adv-x="370" d="M229 590V691H322V590H229ZM48 590V691H140V590H48Z"  />
<glyph unicode="&#xA9;" horiz-adv-x="945" d="M862 372Q862 291 832 221T748 97T625 14T473 -17Q392 -17 321 13T197 97T114 220T83 372Q83 453 113 523T197 647T321 730T473 761Q554 761 624 731T748 647T831 524T862 372ZM798 372Q798 439 773 498T703 602T600 671T473 697Q405 697 346 672T243 602T174 498T148 372Q148 305 173 246T243 143T347 73T473 47Q540 47 599 72T702 142T772 245T798 372ZM687 254Q639 207 594 187T487 167Q441 167 401 182T330 224T282 291T264 379Q264 425 280 464T326 531T395 575T481 591Q537 591 587 570T682 503L633 456Q595 489 559 506T479 523Q449 523 422 512T375 482T344 436T332 380Q332 347 344 321T378 275T428 246T490 236Q534 236 568 252T640 306L687 254Z"  />
<glyph unicode="&#xAA;" horiz-adv-x="500" d="M347 308V351Q336 338 326 328T301 309T266 297T217 292Q188 292 161 299T112 321T77 359T64 415Q64 452 79 474T121 509T187 524T271 528H347Q347 552 342 569Q339 581 328 588T304 600T275 606T249 608Q221 608 193 599T153 559L86 561Q91 597 108 618T151 650T205 664T263 668Q349 668 385 630T421 507V308H347ZM279 471Q200 471 166 460T131 413Q131 396 140 385T164 366T194 356T224 353Q250 353 273 360T313 381T340 417T350 471H279Z"  />
<glyph unicode="&#xAB;" horiz-adv-x="556" d="M419 67L285 263L419 456H500L385 263L500 67H419ZM188 67L54 263L188 456H268L153 263L268 67H188Z"  />
<glyph unicode="&#xAC;" horiz-adv-x="889" d="M610 117V277H207V350H682V117H610Z"  />
<glyph unicode="&#xAD;" horiz-adv-x="610" d="M139 209V305H471V209H139Z"  />
<glyph unicode="&#xAE;" horiz-adv-x="945" d="M862 372Q862 291 832 221T748 97T625 14T473 -17Q392 -17 321 13T197 97T114 220T83 372Q83 453 113 523T197 647T321 730T473 761Q554 761 624 731T748 647T831 524T862 372ZM798 372Q798 439 773 498T703 602T600 671T473 697Q405 697 346 672T243 602T174 498T148 372Q148 305 173 246T243 143T347 73T473 47Q540 47 599 72T702 142T772 245T798 372ZM672 464Q672 436 661 410T629 365Q618 355 607 350T583 342L671 178H595L509 339H380V178H314V590H510Q533 590 549 590T577 587T599 580T622 567Q646 550 659 522T672 464ZM606 463Q606 494 587 507T536 521H380V408H528Q554 408 565 410T585 418Q595 426 600 438T606 463Z"  />
<glyph unicode="&#xAF;" horiz-adv-x="370" d="M50 610V671H320V610H50Z"  />
<glyph unicode="&#xB0;" horiz-adv-x="426" d="M337 641Q337 615 327 593T301 553T261 527T213 517Q187 517 165 526T126 553T99 592T89 640Q89 666 99 688T125 728T164 754T213 764Q238 764 261 755T300 728T327 689T337 641ZM282 640Q282 669 262 689T213 709Q184 709 164 689T144 641Q144 612 164 592T213 572Q242 572 261 592T281 641L282 640Z"  />
<glyph unicode="&#xB1;" horiz-adv-x="889" d="M481 230V63H409V229H207V301H408V468H480V302H682V230H481ZM207 -73V0H682V-73H207Z"  />
<glyph unicode="&#xB2;" horiz-adv-x="519" d="M52 265V288Q52 330 63 367T97 432T154 479T235 501Q257 503 278 505T322 509Q331 510 341 512T361 518T377 529T384 547Q384 565 371 576T338 592T299 599T265 601Q240 601 220 599T179 591T139 578T94 558L61 616Q91 631 115 641T161 657T208 665T265 668Q292 668 325 663T387 644T436 607T456 548Q456 522 444 503T414 471T373 451T328 442Q314 440 296 439T260 436T224 431T193 423Q176 415 158 396T130 330H458V265H52Z"  />
<glyph unicode="&#xB3;" horiz-adv-x="519" d="M483 382Q483 342 456 318T392 280T314 263T247 258Q185 258 132 271T22 321L62 375Q88 360 110 351T154 335T199 327T250 325Q264 325 290 326T343 332T390 349T410 382Q410 401 393 412T352 429T305 437T268 439H219V505H268Q279 505 298 506T337 513T370 528T384 554Q384 571 368 580T331 595T288 601T254 602Q233 602 216 600T181 593T145 581T106 565L73 622Q98 634 120 643T164 657T208 665T256 668Q280 668 314 664T379 647T433 613T456 557Q456 531 443 512T411 477Q438 463 460 440T483 382Z"  />
<glyph unicode="&#xB4;" horiz-adv-x="370" d="M152 575H63L141 705H258L152 575Z"  />
<glyph unicode="&#xB5;" horiz-adv-x="796" d="M564 0V53Q555 42 542 31T511 9T466 -8T403 -15Q335 -15 295 6T237 48V-152H149V518H237V226Q237 199 238 182T242 153T249 134T260 120Q272 106 290 98T328 84T368 76T406 74Q424 74 444 76T483 85T519 102T547 128Q555 139 559 158T564 226V518H652V0H564Z"  />
<glyph unicode="&#xB6;" horiz-adv-x="815" d="M627 0V672H551V0H470V314H347Q302 314 258 319T175 350Q130 380 109 428T88 528Q88 576 105 621T161 699Q196 730 232 738T314 746H705V0H627ZM314 672Q244 672 208 639T172 530Q172 497 184 465T226 415Q247 403 273 397T347 391H469L470 672H314Z"  />
<glyph unicode="&#xB7;" horiz-adv-x="370" d="M254 325Q254 296 234 277T186 257Q157 257 137 276T116 325Q116 353 136 373T184 394Q213 394 233 374T254 325Z"  />
<glyph unicode="&#xB8;" horiz-adv-x="370" d="M312 -145Q312 -172 299 -189T264 -216T219 -231T174 -235Q138 -235 114 -228T58 -206L82 -156Q107 -169 123 -173T168 -177Q176 -177 184 -176T200 -171T213 -161T218 -144Q218 -127 204 -120T176 -113Q165 -113 154 -115T131 -121L109 -94L185 10H258L201 -69Q221 -69 241 -71T276 -82T302 -105T312 -145Z"  />
<glyph unicode="&#xB9;" horiz-adv-x="519" d="M222 265V658H297V265H222Z"  />
<glyph unicode="&#xBA;" horiz-adv-x="500" d="M460 480Q460 434 442 400T395 343T327 309T249 297Q208 297 171 309T104 345T58 404T40 485Q40 529 58 563T105 620T171 656T247 668Q287 668 325 656T394 619T442 560T460 480ZM391 481Q391 511 379 534T347 572T301 596T248 605Q222 605 197 597T153 573T121 535T109 484Q109 455 121 432T153 394T198 370T251 362Q278 362 303 369T347 392T379 429T391 481Z"  />
<glyph unicode="&#xBB;" horiz-adv-x="556" d="M368 67H287L403 263L287 456H368L502 263L368 67ZM136 67H55L171 263L55 456H136L270 263L136 67Z"  />
<glyph unicode="&#xBC;" horiz-adv-x="1204" d="M1019 95V0H946V95H658L626 155L948 391H1018V160H1113V95H1019ZM296 -40H211L762 718H848L296 -40ZM168 265V658H242V265H168ZM946 310L734 160H946V310Z"  />
<glyph unicode="&#xBD;" horiz-adv-x="1204" d="M668 -1V22Q668 64 679 101T713 166T770 213T851 235Q873 237 894 239T938 243Q947 244 957 246T977 252T993 263T1000 281Q1000 299 987 310T954 326T915 333T881 335Q856 335 836 333T795 325T755 312T710 292L677 350Q707 365 731 375T777 391T824 399T881 402Q908 402 941 397T1003 378T1052 341T1072 282Q1072 256 1060 237T1030 205T989 185T944 176Q930 174 912 173T876 170T840 165T809 157Q792 149 774 130T746 64H1074V-1H668ZM263 -40H178L729 718H815L263 -40ZM158 265V658H232V265H158Z"  />
<glyph unicode="&#xBE;" horiz-adv-x="1204" d="M1048 95V0H975V95H687L655 155L977 391H1047V160H1142V95H1048ZM410 -40H325L876 718H962L410 -40ZM523 382Q523 342 496 318T432 280T354 263T287 258Q225 258 172 271T62 321L102 375Q128 360 150 351T194 335T239 327T290 325Q304 325 330 326T383 332T430 349T450 382Q450 401 433 412T392 429T345 437T308 439H259V505H308Q319 505 338 506T377 513T410 528T424 554Q424 571 408 580T371 595T328 601T294 602Q273 602 256 600T221 593T185 581T146 565L113 622Q138 634 160 643T204 657T248 665T296 668Q320 668 354 664T419 647T473 613T496 557Q496 531 483 512T451 477Q478 463 500 440T523 382ZM975 310L763 160H975V310Z"  />
<glyph unicode="&#xBF;" horiz-adv-x="593" d="M413 701Q413 675 395 656T350 637Q323 637 305 655T286 701Q286 727 304 745T349 764Q375 764 394 746T413 701ZM515 2Q470 -10 424 -14T331 -18Q283 -18 237 -11T154 18T96 75T74 169Q74 230 105 274T183 354L284 430Q298 441 303 455T308 487V561H391V487Q391 447 384 423T350 379L244 297Q215 274 191 243T167 172Q167 138 185 117T231 85T290 69T348 65Q394 65 432 70T515 89V2Z"  />
<glyph unicode="&#xC0;" horiz-adv-x="833" d="M715 0L593 257H233L115 0H17L373 747H463L813 0H715ZM417 640L277 344H554L417 640ZM407 806L295 936H415L495 806H407Z"  />
<glyph unicode="&#xC1;" horiz-adv-x="833" d="M715 0L593 257H233L115 0H17L373 747H463L813 0H715ZM417 640L277 344H554L417 640ZM432 806H343L421 936H538L432 806Z"  />
<glyph unicode="&#xC2;" horiz-adv-x="833" d="M715 0L593 257H233L115 0H17L373 747H463L813 0H715ZM417 640L277 344H554L417 640ZM475 806L412 885L349 806H265L358 936H470L565 806H475Z"  />
<glyph unicode="&#xC3;" horiz-adv-x="833" d="M715 0L593 257H233L115 0H17L373 747H463L813 0H715ZM417 640L277 344H554L417 640ZM572 915Q571 892 567 873T554 840T528 818T486 810Q464 810 442 815T400 825T362 836T333 841Q316 841 310 831T302 805H238Q238 827 242 847T256 882T282 906T324 915Q345 915 366 910T406 898T443 887T472 881Q490 881 498 889T508 915H572H572Z"  />
<glyph unicode="&#xC4;" horiz-adv-x="833" d="M715 0L593 257H233L115 0H17L373 747H463L813 0H715ZM417 640L277 344H554L417 640ZM461 821V922H554V821H461ZM280 821V922H372V821H280Z"  />
<glyph unicode="&#xC5;" horiz-adv-x="833" d="M715 0L593 257H233L115 0H17L373 747H463L813 0H715ZM417 640L277 344H554L417 640ZM529 916Q529 893 520 873T496 837T460 814T416 805Q392 805 372 814T335 838T310 874T301 919Q301 943 310 963T335 999T371 1024T416 1033Q440 1033 460 1024T496 998T520 961T529 916ZM473 916Q473 940 457 958T415 976Q392 976 375 959T358 919Q358 896 374 879T414 862Q437 862 455 877T473 916Z"  />
<glyph unicode="&#xC6;" horiz-adv-x="1296" d="M595 0V257H307L115 0H17L577 747H1212V659H684V431H962V343H684V88H1233V0H595ZM595 642L373 344H595V642Z"  />
<glyph unicode="&#xC7;" horiz-adv-x="944" d="M876 130Q830 86 791 59T712 16T624 -7T513 -19L480 -66Q499 -66 519 -68T555 -78T582 -101T592 -140Q592 -167 579 -185T545 -213T500 -228T454 -232Q419 -232 395 -225T338 -203L362 -154Q385 -167 403 -170T447 -174Q454 -174 463 -173T480 -168T493 -158T498 -142Q498 -125 484 -118T456 -110Q444 -110 433 -112T410 -118L389 -92L445 -14Q369 -2 306 30T197 113T126 229T100 373Q100 460 131 532T216 656T345 737T504 766Q608 766 700 729T865 617L802 556Q792 564 783 572T764 588Q709 631 638 655T497 679Q434 679 378 656T280 591T213 495T188 375Q188 304 215 247T287 151T394 90T523 69Q569 69 609 76T684 99T751 139T816 197L876 130H876Z"  />
<glyph unicode="&#xC8;" horiz-adv-x="852" d="M151 0V747H767V659H240V431H517V343H240V88H789V0H151ZM437 806L325 936H445L525 806H437Z"  />
<glyph unicode="&#xC9;" horiz-adv-x="852" d="M151 0V747H767V659H240V431H517V343H240V88H789V0H151ZM492 806H403L481 936H598L492 806Z"  />
<glyph unicode="&#xCA;" horiz-adv-x="852" d="M151 0V747H767V659H240V431H517V343H240V88H789V0H151ZM525 806L462 885L399 806H315L408 936H520L615 806H525Z"  />
<glyph unicode="&#xCB;" horiz-adv-x="852" d="M151 0V747H767V659H240V431H517V343H240V88H789V0H151ZM509 821V922H602V821H509ZM328 821V922H420V821H328Z"  />
<glyph unicode="&#xCC;" horiz-adv-x="389" d="M153 0V748H241V0H153ZM181 806L69 936H189L269 806H181Z"  />
<glyph unicode="&#xCD;" horiz-adv-x="389" d="M153 0V748H241V0H153ZM212 806H123L201 936H318L212 806Z"  />
<glyph unicode="&#xCE;" horiz-adv-x="389" d="M153 0V748H241V0H153ZM254 806L191 885L128 806H44L137 936H249L344 806H254Z"  />
<glyph unicode="&#xCF;" horiz-adv-x="389" d="M153 0V748H241V0H153ZM239 821V922H332V821H239ZM58 821V922H150V821H58Z"  />
<glyph unicode="&#xD0;" horiz-adv-x="926" d="M864 371Q864 302 839 235T769 116T663 32T528 0H150V343H40V431H150V747H518Q586 747 638 727T729 674T793 600T835 517T857 437T864 371ZM776 374Q776 434 757 486T703 576T621 637T518 659H238V431H489V343H238V88H528Q583 88 628 113T707 180T758 272T776 374Z"  />
<glyph unicode="&#xD1;" horiz-adv-x="963" d="M726 0L239 608V0H151V747H239L726 131V747H815V0H726ZM662 915Q661 892 657 873T644 840T618 818T576 810Q554 810 532 815T490 825T452 836T423 841Q406 841 400 831T392 805H328Q328 827 332 847T346 882T372 906T414 915Q435 915 456 910T496 898T533 887T562 881Q580 881 588 889T598 915H662H662Z"  />
<glyph unicode="&#xD2;" horiz-adv-x="1000" d="M901 375Q901 289 869 217T782 93T653 11T495 -19Q413 -19 340 10T213 92T126 216T94 370Q94 454 126 526T215 651T344 734T501 764Q583 764 656 735T783 654T869 531T901 375ZM812 373Q812 438 788 493T721 589T623 652T502 675Q437 675 379 652T278 589T209 492T183 370Q183 305 208 250T277 155T377 92T497 69Q562 69 619 91T719 154T787 251T812 373ZM507 806L395 936H515L595 806H507Z"  />
<glyph unicode="&#xD3;" horiz-adv-x="1000" d="M901 375Q901 289 869 217T782 93T653 11T495 -19Q413 -19 340 10T213 92T126 216T94 370Q94 454 126 526T215 651T344 734T501 764Q583 764 656 735T783 654T869 531T901 375ZM812 373Q812 438 788 493T721 589T623 652T502 675Q437 675 379 652T278 589T209 492T183 370Q183 305 208 250T277 155T377 92T497 69Q562 69 619 91T719 154T787 251T812 373ZM522 806H433L511 936H628L522 806Z"  />
<glyph unicode="&#xD4;" horiz-adv-x="1000" d="M901 375Q901 289 869 217T782 93T653 11T495 -19Q413 -19 340 10T213 92T126 216T94 370Q94 454 126 526T215 651T344 734T501 764Q583 764 656 735T783 654T869 531T901 375ZM812 373Q812 438 788 493T721 589T623 652T502 675Q437 675 379 652T278 589T209 492T183 370Q183 305 208 250T277 155T377 92T497 69Q562 69 619 91T719 154T787 251T812 373ZM573 806L510 885L447 806H363L456 936H568L663 806H573Z"  />
<glyph unicode="&#xD5;" horiz-adv-x="1000" d="M901 375Q901 289 869 217T782 93T653 11T495 -19Q413 -19 340 10T213 92T126 216T94 370Q94 454 126 526T215 651T344 734T501 764Q583 764 656 735T783 654T869 531T901 375ZM812 373Q812 438 788 493T721 589T623 652T502 675Q437 675 379 652T278 589T209 492T183 370Q183 305 208 250T277 155T377 92T497 69Q562 69 619 91T719 154T787 251T812 373ZM655 915Q654 892 650 873T637 840T611 818T569 810Q547 810 525 815T483 825T445 836T416 841Q399 841 393 831T385 805H321Q321 827 325 847T339 882T365 906T407 915Q428 915 449 910T489 898T526 887T555 881Q573 881 581 889T591 915H655H655Z"  />
<glyph unicode="&#xD6;" horiz-adv-x="1000" d="M901 375Q901 289 869 217T782 93T653 11T495 -19Q413 -19 340 10T213 92T126 216T94 370Q94 454 126 526T215 651T344 734T501 764Q583 764 656 735T783 654T869 531T901 375ZM812 373Q812 438 788 493T721 589T623 652T502 675Q437 675 379 652T278 589T209 492T183 370Q183 305 208 250T277 155T377 92T497 69Q562 69 619 91T719 154T787 251T812 373ZM543 821V922H636V821H543ZM362 821V922H454V821H362Z"  />
<glyph unicode="&#xD7;" horiz-adv-x="889" d="M601 24L444 181L288 24L237 75L394 231L237 388L288 439L444 282L601 439L652 388L495 231L652 75L601 24Z"  />
<glyph unicode="&#xD8;" horiz-adv-x="1000" d="M901 374Q901 289 869 217T782 93T654 11T497 -19Q434 -19 372 -1T258 53L151 -65L95 -14L201 103Q177 129 157 161T123 228T102 300T94 373Q94 456 127 527T215 651T345 734T500 764Q567 764 622 748T733 694L826 797L882 747L791 646Q845 590 873 521T901 374ZM812 373Q812 431 792 484T731 579L318 121Q360 94 404 82T498 69Q562 69 619 92T719 155T787 251T812 373ZM673 627Q649 642 630 651T591 666T551 673T501 675Q437 675 380 653T279 590T209 494T183 373Q183 316 203 264T261 170L673 627Z"  />
<glyph unicode="&#xD9;" horiz-adv-x="963" d="M815 300Q815 252 810 203T778 111Q755 74 722 49T649 9T566 -12T483 -19Q417 -19 355 -4T241 55Q211 80 194 107T167 164T156 227T153 298V747H241V300Q241 270 242 247T247 206T257 173T276 144Q294 122 318 108T370 86T427 74T483 70Q511 70 542 73T602 85T656 110T698 152Q705 162 710 173T719 200T725 241T727 300V747H815V300H815ZM467 806L355 936H475L555 806H467Z"  />
<glyph unicode="&#xDA;" horiz-adv-x="963" d="M815 300Q815 252 810 203T778 111Q755 74 722 49T649 9T566 -12T483 -19Q417 -19 355 -4T241 55Q211 80 194 107T167 164T156 227T153 298V747H241V300Q241 270 242 247T247 206T257 173T276 144Q294 122 318 108T370 86T427 74T483 70Q511 70 542 73T602 85T656 110T698 152Q705 162 710 173T719 200T725 241T727 300V747H815V300H815ZM492 806H403L481 936H598L492 806Z"  />
<glyph unicode="&#xDB;" horiz-adv-x="963" d="M815 300Q815 252 810 203T778 111Q755 74 722 49T649 9T566 -12T483 -19Q417 -19 355 -4T241 55Q211 80 194 107T167 164T156 227T153 298V747H241V300Q241 270 242 247T247 206T257 173T276 144Q294 122 318 108T370 86T427 74T483 70Q511 70 542 73T602 85T656 110T698 152Q705 162 710 173T719 200T725 241T727 300V747H815V300H815ZM543 806L480 885L417 806H333L426 936H538L633 806H543Z"  />
<glyph unicode="&#xDC;" horiz-adv-x="963" d="M815 300Q815 252 810 203T778 111Q755 74 722 49T649 9T566 -12T483 -19Q417 -19 355 -4T241 55Q211 80 194 107T167 164T156 227T153 298V747H241V300Q241 270 242 247T247 206T257 173T276 144Q294 122 318 108T370 86T427 74T483 70Q511 70 542 73T602 85T656 110T698 152Q705 162 710 173T719 200T725 241T727 300V747H815V300H815ZM519 821V922H612V821H519ZM338 821V922H430V821H338Z"  />
<glyph unicode="&#xDD;" horiz-adv-x="759" d="M424 344V0H336V344L19 747H133L382 431L631 747H745L424 344ZM422 806H333L411 936H528L422 806Z"  />
<glyph unicode="&#xDE;" horiz-adv-x="852" d="M795 386Q795 338 777 292T720 215Q685 187 644 179T559 170H233V0H145V747H233V599H559Q611 599 654 587T729 548T778 482T795 386ZM707 387Q707 419 695 448T654 495Q640 504 616 507T559 511H233V259H559Q626 259 666 287T707 387Z"  />
<glyph unicode="&#xDF;" horiz-adv-x="1375" d="M1307 162Q1307 107 1286 72T1230 17T1150 -10T1059 -18Q974 -18 896 0T748 70L790 147Q822 127 851 113T911 89T974 75T1045 70Q1082 70 1113 73T1166 86T1201 111T1214 153Q1214 163 1212 173T1205 192Q1192 212 1156 218T1061 225Q1003 225 968 226T912 230T879 237T856 246Q821 263 803 297T784 369Q784 416 805 447T860 498T935 525T1016 533Q1088 533 1152 517T1279 465L1238 386Q1210 402 1185 413T1133 432T1078 443T1018 446Q955 446 918 430T880 375Q880 366 882 357T889 340Q894 332 904 327T931 318T974 313T1038 311Q1091 311 1139 307T1225 288T1285 243T1307 162ZM617 162Q617 107 596 72T540 17T460 -10T369 -18Q284 -18 206 0T58 70L100 147Q132 127 161 113T221 89T284 75T355 70Q392 70 423 73T476 86T511 111T524 153Q524 163 522 173T515 192Q502 212 466 218T371 225Q313 225 278 226T222 230T189 237T166 246Q131 263 113 297T94 369Q94 416 115 447T170 498T245 525T326 533Q398 533 462 517T589 465L548 386Q520 402 495 413T443 432T388 443T328 446Q265 446 228 430T190 375Q190 366 192 357T199 340Q204 332 214 327T241 318T284 313T348 311Q401 311 449 307T535 288T595 243T617 162Z"  />
<glyph unicode="&#xE0;" horiz-adv-x="685" d="M564 0L498 121H182L118 0H18L298 518H386L668 0H564ZM341 419L228 208H454L341 419ZM322 575L210 705H330L410 575H322Z"  />
<glyph unicode="&#xE1;" horiz-adv-x="685" d="M564 0L498 121H182L118 0H18L298 518H386L668 0H564ZM341 419L228 208H454L341 419ZM356 575H267L345 705H462L356 575Z"  />
<glyph unicode="&#xE2;" horiz-adv-x="685" d="M564 0L498 121H182L118 0H18L298 518H386L668 0H564ZM341 419L228 208H454L341 419ZM401 575L338 654L275 575H191L284 705H396L491 575H401Z"  />
<glyph unicode="&#xE3;" horiz-adv-x="685" d="M564 0L498 121H182L118 0H18L298 518H386L668 0H564ZM341 419L228 208H454L341 419ZM510 684Q509 661 505 642T492 609T466 587T424 579Q402 579 380 584T338 594T300 605T271 610Q254 610 248 600T240 574H176Q176 596 180 616T194 651T220 675T262 684Q283 684 304 679T344 667T381 656T410 650Q428 650 436 658T446 684H510H510Z"  />
<glyph unicode="&#xE4;" horiz-adv-x="685" d="M564 0L498 121H182L118 0H18L298 518H386L668 0H564ZM341 419L228 208H454L341 419ZM384 590V691H477V590H384ZM203 590V691H295V590H203Z"  />
<glyph unicode="&#xE5;" horiz-adv-x="685" d="M564 0L498 121H182L118 0H18L298 518H386L668 0H564ZM341 419L228 208H454L341 419ZM459 685Q459 662 450 642T426 606T390 583T346 574Q322 574 302 583T265 607T240 643T231 688Q231 712 240 732T265 768T301 793T346 802Q370 802 390 793T426 767T450 730T459 685ZM403 685Q403 709 387 727T345 745Q322 745 305 728T288 688Q288 665 304 648T344 631Q367 631 385 646T403 685Z"  />
<glyph unicode="&#xE6;" horiz-adv-x="1019" d="M489 0V121H224L118 0H18L472 518H945V430H578V311H779V223H578V88H956V0H489ZM489 423L301 208H489V423Z"  />
<glyph unicode="&#xE7;" horiz-adv-x="741" d="M680 63Q647 40 620 27T564 5T504 -9T434 -18L397 -69Q416 -69 436 -71T472 -81T499 -104T509 -143Q509 -170 496 -188T462 -216T417 -231T370 -235Q334 -235 310 -228T254 -206L279 -156Q303 -169 319 -173T363 -177Q370 -177 379 -176T396 -171T409 -161T415 -145Q415 -128 401 -121T372 -113Q360 -113 349 -115T327 -121L306 -94L364 -15Q337 -10 310 -4T256 14Q219 28 190 53T139 110T107 179T95 255Q95 320 120 371T188 459T287 514T405 533Q482 533 548 508T674 436L627 362Q600 381 575 396T524 421T469 438T406 444Q364 444 324 432T253 396T202 337T183 256Q183 208 203 173T257 116T331 82T416 71Q480 71 534 89T641 144L680 63H680Z"  />
<glyph unicode="&#xE8;" horiz-adv-x="685" d="M156 0V518H612V430H244V311H446V223H244V88H622V0H156ZM380 575L268 705H388L468 575H380Z"  />
<glyph unicode="&#xE9;" horiz-adv-x="685" d="M156 0V518H612V430H244V311H446V223H244V88H622V0H156ZM412 575H323L401 705H518L412 575Z"  />
<glyph unicode="&#xEA;" horiz-adv-x="685" d="M156 0V518H612V430H244V311H446V223H244V88H622V0H156ZM445 575L382 654L319 575H235L328 705H440L535 575H445Z"  />
<glyph unicode="&#xEB;" horiz-adv-x="685" d="M156 0V518H612V430H244V311H446V223H244V88H622V0H156ZM429 590V691H522V590H429ZM248 590V691H340V590H248Z"  />
<glyph unicode="&#xEC;" horiz-adv-x="389" d="M152 0V518H240V0H152ZM178 575L66 705H186L266 575H178Z"  />
<glyph unicode="&#xED;" horiz-adv-x="389" d="M152 0V518H240V0H152ZM219 575H130L208 705H325L219 575Z"  />
<glyph unicode="&#xEE;" horiz-adv-x="389" d="M152 0V518H240V0H152ZM258 575L195 654L132 575H48L141 705H253L348 575H258Z"  />
<glyph unicode="&#xEF;" horiz-adv-x="389" d="M152 0V518H240V0H152ZM239 590V691H332V590H239ZM58 590V691H150V590H58Z"  />
<glyph unicode="&#xF0;" horiz-adv-x="759" d="M697 261Q697 201 678 153T625 71T542 19T433 0H149V227H65V307H149V518H433Q497 518 546 498T629 443T680 361T697 261ZM609 260Q609 345 561 387T433 430H237V307H412V227H237V88H433Q512 88 560 133T609 260Z"  />
<glyph unicode="&#xF1;" horiz-adv-x="796" d="M563 0L239 385V0H151V518H240L563 134V518H651V0H563ZM563 684Q562 661 558 642T545 609T519 587T477 579Q455 579 433 584T391 594T353 605T324 610Q307 610 301 600T293 574H229Q229 596 233 616T247 651T273 675T315 684Q336 684 357 679T397 667T434 656T463 650Q481 650 489 658T499 684H563H563Z"  />
<glyph unicode="&#xF2;" horiz-adv-x="833" d="M735 260Q735 193 708 142T635 55T532 1T412 -18Q352 -18 296 0T196 54T126 139T100 255V269Q100 335 128 384T201 467T303 516T420 533Q481 533 538 515T638 463T708 377T735 260ZM646 259Q646 307 627 341T575 398T502 432T419 443Q377 443 336 432T262 397T209 339T189 256Q189 209 208 175T258 117T330 83T413 72Q455 72 496 83T571 118T625 176T646 259ZM397 575L285 705H405L485 575H397Z"  />
<glyph unicode="&#xF3;" horiz-adv-x="833" d="M735 260Q735 193 708 142T635 55T532 1T412 -18Q352 -18 296 0T196 54T126 139T100 255V269Q100 335 128 384T201 467T303 516T420 533Q481 533 538 515T638 463T708 377T735 260ZM646 259Q646 307 627 341T575 398T502 432T419 443Q377 443 336 432T262 397T209 339T189 256Q189 209 208 175T258 117T330 83T413 72Q455 72 496 83T571 118T625 176T646 259ZM432 575H343L421 705H538L432 575Z"  />
<glyph unicode="&#xF4;" horiz-adv-x="833" d="M735 260Q735 193 708 142T635 55T532 1T412 -18Q352 -18 296 0T196 54T126 139T100 255V269Q100 335 128 384T201 467T303 516T420 533Q481 533 538 515T638 463T708 377T735 260ZM646 259Q646 307 627 341T575 398T502 432T419 443Q377 443 336 432T262 397T209 339T189 256Q189 209 208 175T258 117T330 83T413 72Q455 72 496 83T571 118T625 176T646 259ZM480 575L417 654L354 575H270L363 705H475L570 575H480Z"  />
<glyph unicode="&#xF5;" horiz-adv-x="833" d="M735 260Q735 193 708 142T635 55T532 1T412 -18Q352 -18 296 0T196 54T126 139T100 255V269Q100 335 128 384T201 467T303 516T420 533Q481 533 538 515T638 463T708 377T735 260ZM646 259Q646 307 627 341T575 398T502 432T419 443Q377 443 336 432T262 397T209 339T189 256Q189 209 208 175T258 117T330 83T413 72Q455 72 496 83T571 118T625 176T646 259ZM576 684Q575 661 571 642T558 609T532 587T490 579Q468 579 446 584T404 594T366 605T337 610Q320 610 314 600T306 574H242Q242 596 246 616T260 651T286 675T328 684Q349 684 370 679T410 667T447 656T476 650Q494 650 502 658T512 684H576H576Z"  />
<glyph unicode="&#xF6;" horiz-adv-x="833" d="M735 260Q735 193 708 142T635 55T532 1T412 -18Q352 -18 296 0T196 54T126 139T100 255V269Q100 335 128 384T201 467T303 516T420 533Q481 533 538 515T638 463T708 377T735 260ZM646 259Q646 307 627 341T575 398T502 432T419 443Q377 443 336 432T262 397T209 339T189 256Q189 209 208 175T258 117T330 83T413 72Q455 72 496 83T571 118T625 176T646 259ZM460 590V691H553V590H460ZM279 590V691H371V590H279Z"  />
<glyph unicode="&#xF7;" horiz-adv-x="889" d="M503 404Q503 380 486 363T445 346Q420 346 403 363T386 404Q386 428 403 445T444 462Q469 462 486 445T503 404ZM207 194V267H682V194H207ZM503 62Q503 38 486 21T445 4Q420 4 403 21T386 62Q386 86 403 103T444 120Q469 120 486 103T503 62Z"  />
<glyph unicode="&#xF8;" horiz-adv-x="833" d="M735 259Q735 193 708 142T636 55T533 1T414 -18Q387 -18 367 -17T329 -11T291 0T248 20L170 -67L115 -18L186 61Q144 99 122 149T100 257Q100 323 127 374T198 461T299 515T419 533Q445 533 464 532T502 527T538 517T580 499L654 580L709 531L644 459Q688 421 711 369T735 259ZM646 258Q646 298 630 332T584 393L311 89Q326 84 338 81T361 75T385 73T413 72Q455 72 496 83T571 118T625 176T646 258ZM517 428Q503 433 492 436T469 440T446 442T419 443Q376 443 335 432T262 398T209 339T189 256Q189 180 246 128L517 428Z"  />
<glyph unicode="&#xF9;" horiz-adv-x="796" d="M652 226Q652 195 651 174T646 137T636 107T620 78Q603 52 578 35T523 6T462 -10T401 -15Q347 -15 295 -1T203 51Q184 69 173 89T157 132T151 177T149 226V518H238V226Q238 199 239 182T243 154T250 135T261 120Q273 106 291 97T329 83T369 76T407 74Q425 74 445 76T484 85T519 101T547 128Q551 134 554 141T560 159T563 186T564 226V518H652V226H652ZM397 575L285 705H405L485 575H397Z"  />
<glyph unicode="&#xFA;" horiz-adv-x="796" d="M652 226Q652 195 651 174T646 137T636 107T620 78Q603 52 578 35T523 6T462 -10T401 -15Q347 -15 295 -1T203 51Q184 69 173 89T157 132T151 177T149 226V518H238V226Q238 199 239 182T243 154T250 135T261 120Q273 106 291 97T329 83T369 76T407 74Q425 74 445 76T484 85T519 101T547 128Q551 134 554 141T560 159T563 186T564 226V518H652V226H652ZM412 575H323L401 705H518L412 575Z"  />
<glyph unicode="&#xFB;" horiz-adv-x="796" d="M652 226Q652 195 651 174T646 137T636 107T620 78Q603 52 578 35T523 6T462 -10T401 -15Q347 -15 295 -1T203 51Q184 69 173 89T157 132T151 177T149 226V518H238V226Q238 199 239 182T243 154T250 135T261 120Q273 106 291 97T329 83T369 76T407 74Q425 74 445 76T484 85T519 101T547 128Q551 134 554 141T560 159T563 186T564 226V518H652V226H652ZM459 575L396 654L333 575H249L342 705H454L549 575H459Z"  />
<glyph unicode="&#xFC;" horiz-adv-x="796" d="M652 226Q652 195 651 174T646 137T636 107T620 78Q603 52 578 35T523 6T462 -10T401 -15Q347 -15 295 -1T203 51Q184 69 173 89T157 132T151 177T149 226V518H238V226Q238 199 239 182T243 154T250 135T261 120Q273 106 291 97T329 83T369 76T407 74Q425 74 445 76T484 85T519 101T547 128Q551 134 554 141T560 159T563 186T564 226V518H652V226H652ZM444 590V691H537V590H444ZM263 590V691H355V590H263Z"  />
<glyph unicode="&#xFD;" horiz-adv-x="574" d="M331 233V0H243V233L16 518H128L287 317L446 518H558L331 233ZM322 575H233L311 705H428L322 575Z"  />
<glyph unicode="&#xFE;" horiz-adv-x="704" d="M646 263Q646 227 634 195T594 138Q582 127 571 120T544 108T502 101T435 99H234V0H146V518H234V430H435Q466 430 486 430T520 427T545 420T572 406Q609 384 627 345T646 263ZM558 263Q558 290 550 305T527 329T494 339T455 341H234V188H450Q473 188 493 190T527 200T550 223T558 263Z"  />
<glyph unicode="&#xFF;" horiz-adv-x="574" d="M331 233V0H243V233L16 518H128L287 317L446 518H558L331 233ZM329 590V691H422V590H329ZM148 590V691H240V590H148Z"  />
<glyph unicode="&#x131;" horiz-adv-x="389" d="M152 0V518H240V0H152Z"  />
<glyph unicode="&#x152;" horiz-adv-x="1315" d="M640 0Q628 0 611 -3T574 -9T534 -16T494 -19Q407 -19 334 9T208 88T124 210T94 370Q94 460 124 532T209 656T337 736T501 764Q530 764 550 762T584 756T607 750T624 747H1230V659H703V431H980V343H703V88H1252V0H640ZM614 655Q599 661 587 665T562 671T537 674T507 675Q438 675 379 655T276 595T208 500T183 372Q183 300 206 244T272 148T372 89T501 68Q519 68 532 69T558 72T584 79T614 90V655Z"  />
<glyph unicode="&#x153;" horiz-adv-x="1037" d="M556 0Q549 0 533 -3T497 -9T455 -15T415 -18Q347 -18 289 -2T189 48T124 133T100 256Q100 327 125 379T193 466T294 516T418 533Q434 533 453 531T490 526T522 521T545 518H964V430H596V311H798V223H596V88H974V0H556ZM508 430Q491 436 472 439T426 443Q376 443 333 433T258 401T208 343T189 256Q189 205 207 170T256 114T329 82T419 72Q447 72 468 75T508 87V430Z"  />
<glyph unicode="&#x160;" horiz-adv-x="833" d="M775 217Q775 149 740 104T653 31T538 -7T421 -19Q361 -19 310 -10T214 18T126 68T42 142L105 204Q142 168 176 143T247 101T326 78T420 70Q443 70 471 72T529 81T587 99T637 126T672 166T686 220Q686 254 671 278T630 317T575 339T517 347L359 349Q324 349 297 351T248 359T209 371T174 390Q137 414 117 454T97 538Q97 600 128 643T207 712T311 751T419 763Q511 763 586 736T735 653L680 584Q648 607 618 624T556 652T490 668T416 674Q386 674 347 668T271 645T211 603T186 538Q186 515 198 494T230 461Q243 454 255 450T283 443T323 439T382 437L493 436Q532 436 571 431T646 411Q675 399 698 379T739 334T765 278T775 217ZM494 806H382L289 936H373L436 858L499 936H589L494 806Z"  />
<glyph unicode="&#x161;" horiz-adv-x="685" d="M617 162Q617 107 596 72T540 17T460 -10T369 -18Q284 -18 206 0T58 70L100 147Q132 127 161 113T221 89T284 75T355 70Q392 70 423 73T476 86T511 111T524 153Q524 163 522 173T515 192Q502 212 466 218T371 225Q313 225 278 226T222 230T189 237T166 246Q131 263 113 297T94 369Q94 416 115 447T170 498T245 525T326 533Q398 533 462 517T589 465L548 386Q520 402 495 413T443 432T388 443T328 446Q265 446 228 430T190 375Q190 366 192 357T199 340Q204 332 214 327T241 318T284 313T348 311Q401 311 449 307T535 288T595 243T617 162ZM398 575H286L193 705H277L340 627L403 705H493L398 575Z"  />
<glyph unicode="&#x178;" horiz-adv-x="759" d="M424 344V0H336V344L19 747H133L382 431L631 747H745L424 344ZM421 821V922H514V821H421ZM240 821V922H332V821H240Z"  />
<glyph unicode="&#x17D;" horiz-adv-x="704" d="M61 0L23 76L543 659H61V747H631L669 674L149 88H676V0H61ZM400 806H288L195 936H279L342 858L405 936H495L400 806Z"  />
<glyph unicode="&#x17E;" horiz-adv-x="537" d="M61 0L19 69L386 430H50V518H476L524 449L154 89H524V0H61ZM323 575H211L118 705H202L265 627L328 705H418L323 575Z"  />
<glyph unicode="&#x192;" horiz-adv-x="704" d="M577 586Q561 588 546 589T515 590Q461 590 432 568T396 491L392 460H551L539 388H380L343 114Q340 95 337 72T329 26T318 -19T305 -60Q294 -87 276 -104T234 -132T185 -145T131 -149Q113 -149 95 -148T59 -146L76 -65Q90 -65 104 -66T133 -67Q169 -67 191 -58T227 -13Q239 19 245 54T257 122L294 388H139L152 460H303L315 528Q329 603 377 635T498 668Q544 668 591 662L577 586Z"  />
<glyph unicode="&#x2C6;" horiz-adv-x="370" d="M245 575L182 654L119 575H35L128 705H240L335 575H245Z"  />
<glyph unicode="&#x2C7;" horiz-adv-x="370" d="M240 575H128L35 705H119L182 627L245 705H335L240 575Z"  />
<glyph unicode="&#x2DA;" horiz-adv-x="370" d="M299 685Q299 662 290 642T266 606T230 583T186 574Q162 574 142 583T105 607T80 643T71 688Q71 712 80 732T105 768T141 793T186 802Q210 802 230 793T266 767T290 730T299 685ZM243 685Q243 709 227 727T185 745Q162 745 145 728T128 688Q128 665 144 648T184 631Q207 631 225 646T243 685Z"  />
<glyph unicode="&#x2DC;" horiz-adv-x="370" d="M352 684Q351 661 347 642T334 609T308 587T266 579Q244 579 222 584T180 594T142 605T113 610Q96 610 90 600T82 574H18Q18 596 22 616T36 651T62 675T104 684Q125 684 146 679T186 667T223 656T252 650Q270 650 278 658T288 684H352H352Z"  />
<glyph unicode="&#x2013;" horiz-adv-x="370" d="M-9 219V295H380V219H-9Z"  />
<glyph unicode="&#x2014;" horiz-adv-x="1000" d="M-5 219V295H1005V219H-5Z"  />
<glyph unicode="&#x2018;" horiz-adv-x="389" d="M245 540Q245 528 240 517T225 498T205 485T182 480Q160 480 144 490T116 515T98 550T92 589Q92 620 101 645T123 689T153 723T182 749Q186 753 196 758T211 764Q233 764 233 739Q233 728 231 723T219 711Q199 699 181 678T162 630Q162 617 167 613T184 608Q213 608 229 589T245 540Z"  />
<glyph unicode="&#x2019;" horiz-adv-x="389" d="M295 655Q295 624 286 599T264 555T234 520T205 495Q201 491 191 486T176 480Q154 480 154 505Q154 516 156 522T168 533Q188 545 206 566T225 614Q225 627 220 631T204 636Q175 636 159 655T142 704Q142 729 162 746T206 764Q227 764 244 754T272 729T289 694T295 655Z"  />
<glyph unicode="&#x201A;" horiz-adv-x="389" d="M295 0Q295 -31 286 -56T264 -100T234 -135T205 -160Q201 -164 191 -169T176 -175Q154 -175 154 -150Q154 -139 156 -133T168 -122Q188 -110 206 -89T225 -41Q225 -28 220 -24T204 -19Q175 -19 159 0T142 49Q142 74 162 91T206 109Q227 109 244 99T272 74T289 39T295 0Z"  />
<glyph unicode="&#x201C;" horiz-adv-x="667" d="M525 540Q525 528 520 517T505 498T485 485T462 480Q440 480 424 490T396 515T378 550T372 589Q372 620 381 645T403 689T433 723T462 749Q466 753 476 758T491 764Q513 764 513 739Q513 728 511 723T499 711Q479 699 461 678T442 630Q442 617 447 613T464 608Q493 608 509 589T525 540ZM292 540Q292 528 287 517T272 498T252 485T229 480Q207 480 191 490T163 515T145 550T139 589Q139 620 148 645T170 689T200 723T229 749Q233 753 243 758T258 764Q280 764 280 739Q280 728 278 723T266 711Q246 699 228 678T209 630Q209 617 214 613T231 608Q260 608 276 589T292 540Z"  />
<glyph unicode="&#x201D;" horiz-adv-x="667" d="M555 655Q555 624 546 599T524 555T494 520T465 495Q461 491 451 486T436 480Q414 480 414 505Q414 516 416 522T428 533Q448 545 466 566T485 614Q485 627 480 631T464 636Q435 636 419 655T402 704Q402 729 422 746T466 764Q487 764 504 754T532 729T549 694T555 655ZM322 655Q322 624 313 599T291 555T261 520T232 495Q228 491 218 486T203 480Q181 480 181 505Q181 516 183 522T195 533Q215 545 233 566T252 614Q252 627 247 631T231 636Q202 636 186 655T169 704Q169 729 189 746T233 764Q254 764 271 754T299 729T316 694T322 655Z"  />
<glyph unicode="&#x201E;" horiz-adv-x="667" d="M548 0Q548 -31 539 -56T517 -100T487 -135T458 -160Q454 -164 444 -169T429 -175Q407 -175 407 -150Q407 -139 409 -133T421 -122Q441 -110 459 -89T478 -41Q478 -28 473 -24T457 -19Q428 -19 412 0T395 49Q395 74 415 91T459 109Q480 109 497 99T525 74T542 39T548 0ZM315 0Q315 -31 306 -56T284 -100T254 -135T225 -160Q221 -164 211 -169T196 -175Q174 -175 174 -150Q174 -139 176 -133T188 -122Q208 -110 226 -89T245 -41Q245 -28 240 -24T224 -19Q195 -19 179 0T162 49Q162 74 182 91T226 109Q247 109 264 99T292 74T309 39T315 0Z"  />
<glyph unicode="&#x2020;" horiz-adv-x="593" d="M337 457V0H256V457H71V538H256V745H337V538H522V457H337Z"  />
<glyph unicode="&#x2021;" horiz-adv-x="593" d="M337 172V-1H256V172H71V253H256V496H71V577H256V745H337V577H522V496H337V253H522V172H337Z"  />
<glyph unicode="&#x2022;" horiz-adv-x="500" d="M369 372Q369 348 360 327T334 289T297 264T250 254Q225 254 204 263T166 289T141 326T131 372Q131 397 140 418T166 456T204 482T250 492Q274 492 296 483T334 457T359 419T369 372Z"  />
<glyph unicode="&#x2026;" horiz-adv-x="1110" d="M994 45Q994 16 974 -3T926 -23Q897 -23 877 -4T856 45Q856 73 876 93T924 114Q953 114 973 94T994 45ZM624 45Q624 16 604 -3T556 -23Q527 -23 507 -4T486 45Q486 73 506 93T554 114Q583 114 603 94T623 45H624ZM254 45Q254 16 234 -3T186 -23Q157 -23 137 -4T116 45Q116 73 136 93T184 114Q213 114 233 94T253 45H254Z"  />
<glyph unicode="&#x2030;" horiz-adv-x="1744" d="M1680 191Q1680 142 1660 104T1606 39T1529 -2T1440 -16Q1396 -16 1354 -2T1278 39T1225 104T1204 189Q1204 239 1223 278T1276 344T1352 385T1442 400Q1488 400 1531 386T1607 344T1660 278T1680 191ZM1140 191Q1140 142 1120 104T1066 39T989 -2T900 -16Q856 -16 814 -2T738 39T685 104T664 189Q664 239 683 278T736 344T812 385T902 400Q948 400 990 386T1066 344T1119 278T1139 191H1140ZM383 -40H298L848 718H934L383 -40ZM539 460Q539 410 519 372T466 307T389 266T299 252Q255 252 213 266T137 308T84 373T63 458Q63 507 82 546T135 613T211 654T301 669Q346 669 389 655T465 613T519 547T539 460ZM1603 192Q1603 224 1590 249T1554 293T1502 320T1441 330Q1408 330 1379 321T1329 293T1294 249T1281 190Q1281 158 1295 133T1332 91T1384 64T1444 55Q1475 55 1504 64T1555 91T1590 134T1603 192ZM1063 192Q1063 224 1050 249T1014 293T962 320T901 330Q868 330 839 321T789 293T754 249T741 190Q741 158 755 133T792 91T844 64T904 55Q935 55 964 64T1014 91T1049 134T1062 192H1063ZM463 460Q463 492 450 517T413 560T361 587T300 597Q268 597 239 588T188 561T153 518T140 459Q140 427 154 402T191 359T243 332T304 323Q335 323 363 332T414 359T449 402T462 460H463Z"  />
<glyph unicode="&#x2039;" horiz-adv-x="333" d="M197 67L63 263L197 456H278L162 263L278 67H197Z"  />
<glyph unicode="&#x203A;" horiz-adv-x="333" d="M136 67H55L171 263L55 456H136L270 263L136 67Z"  />
<glyph unicode="&#x20AC;" horiz-adv-x="889" d="M847 114Q811 79 776 54T702 12T621 -11T529 -19Q468 -19 413 -3T312 45T232 119T180 216H77L90 283H165Q164 294 164 303T163 324Q163 330 163 335T164 346H77L90 413H175Q190 470 222 517T299 598T400 650T518 669Q609 669 690 636T838 535L776 476Q718 527 655 555T514 584Q472 584 434 571T363 536T305 482T266 414H666L653 347H253Q253 342 253 337T252 326Q252 303 255 284H641L628 217H274Q291 182 317 155T378 108T451 78T533 67Q611 67 671 94T788 180L847 114H847Z"  />
<glyph unicode="&#x2122;" horiz-adv-x="722" d="M611 457V629L508 478L405 629V457H347V746H403L508 584L614 746H669V457H611ZM208 690V457H144V690H45V746H305V690H208Z"  />


</font>
</defs>
</svg>
