<?xml  version="1.0" encoding="UTF-8"?>
<!DOCTYPE svg PUBLIC "-//W3C//DTD SVG 1.0//EN" "http://www.w3.org/TR/2001/REC-SVG-20010904/DTD/svg10.dtd" >
<svg xmlns="http://www.w3.org/2000/svg" >
<metadata>
<version>1.0</version>
<id><![CDATA[Sackers Gothic W01 Heavy]]></id>
<vendor>Monotype Imaging Inc.</vendor>
<credits>
<name>Fonts.com WebFonts</name>
<URL>http://webfonts.fonts.com</URL>
<role>Home of the Web fonts</role>
</credits>
<license>
<URL>http://webfonts.fonts.com/Legal</URL>
</license>
<copyright><![CDATA[Copyright 1994, 2003 Monotype Imaging, Inc. All rights reserved.]]></copyright>
<trademark><![CDATA["Sackers" is a trademark of Monotype Imaging, Inc. and may be registered in certain jurisdictions.]]></trademark>
<licensee>
<name></name>
</licensee>
</metadata>
<defs >
<font horiz-adv-x="727" id="45232dc5-1ee3-4f9b-a68d-53248a996d78">
<font-face font-family="" panose-1="2 11 8 4 2 2 2 6 2 4" ascent="1041" descent="-250" units-per-em="1000" alphabetic="0">
</font-face>
<missing-glyph horiz-adv-x="0" />

<glyph unicode="&#xA;" />
<glyph unicode="&#xD;" />
<glyph unicode=" " horiz-adv-x="370" />
<glyph unicode="!" horiz-adv-x="352" d="M213 196H142L123 748H234L213 196ZM251 55Q251 25 230 4T179 -18Q149 -18 128 4T107 55Q107 85 128 106T179 128Q209 128 230 106T251 55Z"  />
<glyph unicode="&quot;" horiz-adv-x="462" d="M355 504H282L258 757H379L355 504ZM180 504H107L83 757H204L180 504Z"  />
<glyph unicode="#" horiz-adv-x="685" d="M683 401H539L492 289H635L605 212H462L377 7H289L374 212H222L136 7H49L133 212H-9L21 289H163L211 401H70L100 480H242L314 652H401L330 480H483L554 652H642L571 480H713L683 401ZM299 401L252 289H404L452 401H299Z"  />
<glyph unicode="$" horiz-adv-x="889" d="M757 188Q757 137 732 99T669 34T585 -5T496 -20V-91H396V-22Q308 -19 235 16T101 113L169 188Q218 145 274 118T396 85V292H345Q303 292 266 301T202 331T159 384T143 464Q143 513 167 550T227 612T309 651T396 671V746H496V671Q556 664 609 641T710 581L654 499Q633 512 615 522T579 540T540 554T496 565V393Q545 393 591 382T675 347T734 283T757 188ZM396 568Q375 565 349 559T300 540T262 508T246 463Q246 441 257 428T288 407T335 396T396 393V568ZM643 198Q643 227 629 245T592 273T544 286T496 290V86Q521 88 547 94T594 112T629 145T643 198Z"  />
<glyph unicode="%" horiz-adv-x="1241" d="M1174 190Q1174 138 1153 99T1096 34T1016 -6T923 -19Q877 -19 834 -5T758 35T704 100T683 188Q683 241 703 280T757 346T835 386T929 399Q975 399 1019 385T1098 345T1153 279T1174 190ZM400 -40H304L855 718H952L400 -40ZM559 459Q559 406 538 367T481 302T400 263T307 250Q261 250 218 264T142 304T88 369T67 457Q67 510 87 549T141 615T219 655T313 668Q359 668 403 655T482 615T538 549T559 459ZM1073 192Q1073 219 1061 240T1029 277T984 301T932 309Q905 309 879 301T831 278T798 240T785 189Q785 162 797 140T830 103T877 79T930 70Q957 70 983 78T1029 103T1061 141T1073 192ZM457 461Q457 488 445 509T413 546T368 570T316 578Q289 578 263 570T215 547T182 509T169 458Q169 431 181 409T214 372T261 348T314 339Q341 339 367 347T412 372T444 410T456 461H457Z"  />
<glyph unicode="&amp;" horiz-adv-x="870" d="M656 0L609 51Q578 33 553 21T502 0T448 -11T382 -15Q335 -15 284 -2T191 37T122 104T95 200Q95 244 113 278T160 336T223 374T291 393Q283 401 273 414T255 444T242 481T236 525Q236 594 288 636T439 678Q472 678 503 673T562 659T613 641T651 621L603 526Q590 533 571 542T531 560T486 573T442 579Q397 579 376 564T354 526Q354 499 369 479T396 446L620 202Q645 228 666 257T707 316L797 257Q775 219 749 186T694 120L803 0H656ZM368 310Q347 304 319 297T266 277T224 245T206 196Q206 168 224 149T270 119T326 102T377 97Q401 97 420 99T457 105T492 117T532 136L368 310Z"  />
<glyph unicode="&apos;" horiz-adv-x="333" d="M208 504H135L111 757H232L208 504Z"  />
<glyph unicode="(" horiz-adv-x="426" d="M372 715Q343 695 310 660T249 580T203 481T185 371Q185 318 203 266T248 167T307 84T367 26L308 -25Q259 13 217 58T144 155T96 261T78 374Q78 432 96 488T147 597T225 693T326 770L372 715H372Z"  />
<glyph unicode=")" horiz-adv-x="426" d="M372 371Q372 313 354 257T304 148T226 52T125 -25L78 30Q108 50 140 85T201 165T247 264T265 374Q265 427 248 479T203 578T144 660T84 718L143 770Q192 732 233 687T306 590T354 484T372 371Z"  />
<glyph unicode="*" horiz-adv-x="500" d="M320 569L421 511L388 452L286 509V393H218V509L113 450L78 510L181 569L80 627L114 686L218 629V747H286V629L387 687L422 627L320 569Z"  />
<glyph unicode="+" horiz-adv-x="889" d="M491 187V-1H398V187H207V280H398V468H491V280H682V187H491Z"  />
<glyph unicode="&#x2c;" horiz-adv-x="389" d="M301 2Q301 -30 292 -56T268 -103T238 -139T208 -166Q203 -169 193 -175T178 -181Q168 -181 161 -175T154 -155Q154 -144 158 -138T169 -127Q190 -114 208 -91T227 -41Q227 -30 223 -23T207 -15Q178 -15 161 4T144 54Q144 67 150 78T167 97T189 110T214 115Q236 115 252 105T279 79T295 43T301 2Z"  />
<glyph unicode="-" horiz-adv-x="610" d="M130 200V319H480V200H130Z"  />
<glyph unicode="." horiz-adv-x="370" d="M255 55Q255 26 235 5T185 -17Q155 -17 135 4T115 55Q115 84 135 105T185 127Q215 127 235 106T255 55Z"  />
<glyph unicode="/" horiz-adv-x="630" d="M161 -29H39L455 745H579L161 -29Z"  />
<glyph unicode="0" horiz-adv-x="889" d="M831 324Q831 279 819 236T785 155T732 85T661 30Q610 1 554 -9T441 -19Q390 -19 342 -12T246 19Q204 40 170 72T111 144T73 229T59 321Q59 349 64 378T78 434Q98 495 135 539T220 612T327 654T446 668Q503 668 559 657T665 617Q703 595 734 563T786 493T819 411T831 324ZM722 328Q722 386 699 430T638 503T550 548T447 563Q393 563 343 548T253 501T191 425T168 321Q168 264 191 220T254 145T343 100T446 84Q501 84 551 100T639 147T699 223T722 328Z"  />
<glyph unicode="1" horiz-adv-x="611" d="M253 0V653H359V0H253Z"  />
<glyph unicode="2" horiz-adv-x="889" d="M145 0Q142 19 142 40Q142 100 158 157T206 260T286 337T397 378Q435 384 474 387T551 398Q566 401 581 406T608 421T627 444T635 475Q635 501 615 517T568 543T511 556T462 560Q423 560 392 556T331 544T272 523T209 492L163 587Q205 610 239 625T306 650T377 663T463 667Q505 667 554 657T645 625T715 568T743 480Q743 438 726 404T679 346T613 306T538 285Q489 278 449 275T377 260Q356 254 339 243T308 215T282 171T261 108H744V0H145Z"  />
<glyph unicode="3" horiz-adv-x="889" d="M792 180Q792 139 774 109T726 57T658 21T579 -1T500 -12T430 -15Q343 -15 261 6Q212 19 175 38T95 85L156 172Q193 148 226 133T294 109T365 97T446 93Q467 93 506 96T585 110T654 138T683 186Q683 207 667 223T629 252T582 271T541 282Q517 287 493 288T443 290Q433 290 424 290T404 289V393Q412 393 431 393T474 396T522 402T567 413Q578 417 591 423T614 438T632 458T639 483Q639 507 616 522T563 545T501 556T451 559Q418 559 390 555T334 544T281 526T224 502L174 592Q215 614 248 628T313 651T382 663T465 667Q506 667 556 658T649 628T721 573T750 486Q750 441 727 408T672 348Q723 321 757 281T792 180Z"  />
<glyph unicode="4" horiz-adv-x="889" d="M667 160V0H558V160H109L61 264L533 654H667V267H818V160H667ZM558 535L236 267H558V535Z"  />
<glyph unicode="5" horiz-adv-x="889" d="M788 207Q788 166 770 133T724 73T660 30T588 2Q553 -8 518 -12T446 -16Q394 -16 351 -11T268 6T192 33T119 70L168 161Q202 146 234 133T300 111T369 97T447 91Q498 91 549 103Q567 107 589 116T631 137T664 167T678 208Q678 240 657 261T603 294T533 312T462 317Q424 317 388 311T320 295T259 274T207 252L137 316V654H736V553H245V384Q275 394 301 402T352 414T405 421T465 424Q515 424 572 413T677 377T756 310T788 207Z"  />
<glyph unicode="6" horiz-adv-x="889" d="M808 203Q808 161 788 127T737 68T668 27T594 1Q529 -14 465 -14Q390 -14 320 7T195 71T108 176T75 321Q75 403 110 467T202 576T332 644T480 668Q524 668 561 661T634 642T704 611T775 571L723 479Q691 498 664 513T608 538T549 553T480 558Q427 558 377 545T286 503T219 433T186 333Q229 355 264 369T333 391T405 403T492 407Q538 407 593 397T696 363T776 300T808 203ZM700 203Q700 223 686 238T651 265T608 283T570 293Q553 297 535 298T498 300Q420 300 350 279T210 225Q225 188 254 163T319 123T394 102T470 96Q493 96 516 98T562 106Q579 110 602 117T648 137T685 165T700 203Z"  />
<glyph unicode="7" horiz-adv-x="889" d="M360 0H230L587 545H139V653H684L741 583L360 0Z"  />
<glyph unicode="8" horiz-adv-x="889" d="M798 182Q798 140 781 109T736 55T672 19T597 -3T520 -14T449 -17Q417 -17 378 -14T300 -3T222 19T155 55T108 108T90 181Q90 218 109 254Q127 289 155 310T219 349Q181 377 159 411T137 494Q137 552 168 586T247 639T347 663T444 669Q489 669 541 663T640 638T716 584T747 490Q747 442 725 409T665 349Q691 338 715 325T757 289Q776 266 787 239T798 182ZM640 485Q640 512 615 527T556 549T488 558T435 560Q416 560 385 558T323 549T270 526T247 484Q247 466 258 453T288 430T328 414T373 405T416 400T449 399Q468 399 500 402T564 415T617 442T640 485ZM687 187Q687 209 670 226T629 255T580 274T537 285Q514 290 490 291T442 293Q417 293 384 290T319 278T258 255T214 218Q210 213 205 202T200 183Q200 163 214 148T250 123T299 107T354 97T404 92T442 91Q464 91 505 94T586 108T657 137T687 187Z"  />
<glyph unicode="9" horiz-adv-x="889" d="M815 334Q815 253 780 188T688 78T559 9T411 -16Q376 -16 342 -11T275 3Q250 10 229 17T189 34T152 55T112 82L165 176Q224 138 280 117T407 95Q458 95 509 109T601 151T671 222T704 320Q660 299 625 285T556 262T484 250T397 246Q367 246 337 249T277 259Q242 268 207 283T144 322T99 377T82 450Q82 490 100 523T146 581T209 623T279 650Q314 660 349 664T420 668Q495 668 566 647T692 583T781 479T815 334ZM680 428Q660 465 632 490T570 530T497 552T419 559Q370 559 327 549Q311 545 287 537T241 517T204 489T188 452Q188 434 201 419T232 393T270 375T305 364Q348 354 395 354Q473 354 541 374T680 428Z"  />
<glyph unicode=":" horiz-adv-x="370" d="M254 430Q254 401 234 380T185 359Q156 359 136 380T116 429Q116 458 136 478T185 499Q214 499 234 479T254 430ZM254 53Q254 24 234 4T185 -17Q156 -17 136 3T116 52Q116 81 136 102T185 123Q214 123 234 102T254 53Z"  />
<glyph unicode=";" horiz-adv-x="389" d="M255 428Q255 399 235 379T185 358Q156 358 136 377T116 426Q116 455 136 477T185 499Q214 499 234 478T255 428ZM271 2Q271 -30 262 -56T238 -103T208 -139T178 -166Q173 -169 163 -175T148 -181Q138 -181 131 -175T124 -155Q124 -144 128 -138T139 -127Q160 -114 178 -91T197 -41Q197 -30 193 -23T177 -15Q148 -15 131 4T114 54Q114 80 134 97T179 115Q201 115 218 105T247 79T265 43T271 2Z"  />
<glyph unicode="&lt;" horiz-adv-x="889" d="M247 187V274L642 447V348L361 231L642 113V14L247 187Z"  />
<glyph unicode="=" horiz-adv-x="889" d="M207 277V370H682V277H207ZM207 97V190H682V97H207Z"  />
<glyph unicode="&gt;" horiz-adv-x="889" d="M247 14V113L528 231L247 348V447L642 274V187L247 14Z"  />
<glyph unicode="?" horiz-adv-x="593" d="M515 571Q515 509 484 465T406 386L305 310Q291 299 286 285T281 253V188H168V262Q168 307 176 329T209 370L315 452Q344 475 366 503T389 570Q389 603 372 621T328 650T272 662T218 665Q176 665 137 660T58 644V747Q107 761 155 764T255 767Q305 767 352 759T435 728T493 667T515 571ZM296 55Q296 25 275 4T224 -18Q194 -18 173 4T152 55Q152 85 173 106T224 128Q254 128 274 106T295 55H296Z"  />
<glyph unicode="@" horiz-adv-x="1072" d="M998 368Q998 318 980 276T934 202T870 154T799 136Q739 136 707 150T658 183Q637 162 601 150T513 137Q486 137 456 143T400 163T359 201T342 261Q342 301 359 325T407 362T477 379T565 383H628Q628 395 622 409Q615 426 594 433T542 440Q501 440 479 433T454 406H361Q368 439 385 460T427 494T484 511T552 516Q644 516 685 480T726 369V285Q726 255 742 236T798 217Q820 217 839 229T873 261T896 309T905 369Q905 428 874 476T791 559T670 613T529 632Q461 632 397 611T284 551T206 455T176 330Q176 257 206 200T286 102T401 41T538 20Q601 20 641 33T703 62L762 -13Q733 -31 680 -48T539 -66Q452 -66 370 -40T224 35T120 156T81 320Q81 418 115 492T211 617T354 692T532 717Q626 717 711 696T859 632T960 523T998 368ZM572 303H532Q521 303 512 303T492 302Q462 300 450 291T437 259Q437 238 458 228T514 218Q566 218 595 238T626 303H572Z"  />
<glyph unicode="A" horiz-adv-x="833" d="M688 0L581 243H246L135 0H17L356 745H476L810 0H688ZM414 613L296 353H532L414 613Z"  />
<glyph unicode="B" horiz-adv-x="907" d="M833 204Q833 117 769 59Q746 38 725 26T680 8T632 1T577 0H149V746H577Q624 746 664 733T734 693T780 629T797 542Q797 494 781 461T730 395Q776 359 804 312T833 204ZM688 541Q688 594 657 616T577 638H257V438H577Q627 438 657 463T688 541ZM725 218Q725 251 712 272T678 305T631 322T577 327H257V110H588Q618 110 644 115T694 143Q725 174 725 218Z"  />
<glyph unicode="C" horiz-adv-x="926" d="M864 134Q796 54 707 18T514 -18Q428 -18 352 10T218 89T128 212T94 375Q94 460 125 531T209 654T335 735T492 764Q596 764 687 724T852 611L771 542Q711 592 645 623T498 655Q436 655 382 635T288 577T225 488T201 373Q201 305 227 253T298 165T400 111T521 92Q565 92 601 99T670 122T732 159T792 212L864 134H864Z"  />
<glyph unicode="D" horiz-adv-x="926" d="M863 376Q863 300 834 227T752 99Q701 44 645 22T514 0H151V746H511Q587 746 651 717T763 637T836 519T863 376ZM753 368Q753 422 737 471T690 556T615 615T512 637H258V109H514Q568 109 612 130T688 186T736 269T753 368Z"  />
<glyph unicode="E" horiz-adv-x="852" d="M151 0V746H765V636H260V441H514V333H260V109H784V0H151Z"  />
<glyph unicode="F" horiz-adv-x="833" d="M261 638V431H567V320H261V0H153V746H764V638H261Z"  />
<glyph unicode="G" horiz-adv-x="907" d="M842 209Q842 167 824 133T777 72T712 28T639 -1Q607 -10 574 -14T506 -18Q422 -18 348 11T218 92T130 216T97 374Q97 460 129 531T218 654T349 734T508 763Q560 763 603 755T685 729T757 686T825 627L750 550Q699 606 645 630T514 655Q451 655 395 636T296 580T228 492T203 373Q203 307 228 255T295 166T393 111T512 91Q558 91 598 101Q617 106 641 115T686 139T721 173T735 216V300H498V408H842V209H842Z"  />
<glyph unicode="H" horiz-adv-x="963" d="M702 0V334H263V0H155V746H263V444H702V746H811V0H702Z"  />
<glyph unicode="I" horiz-adv-x="389" d="M143 0V746H250V0H143Z"  />
<glyph unicode="J" horiz-adv-x="815" d="M659 279Q659 253 658 232T652 191T638 152T614 110Q590 75 560 51T494 12T419 -10T339 -17Q278 -17 220 -2T113 53Q79 82 59 114T20 185L118 234Q137 194 156 167T201 123T258 99T336 92Q363 92 390 96T443 109T489 135T527 175Q533 184 537 193T545 216T549 248T551 294V746H659V279H659Z"  />
<glyph unicode="K" horiz-adv-x="833" d="M685 0L454 406L259 199V0H151V746H259V356L627 746H778L531 487L811 0H685Z"  />
<glyph unicode="L" horiz-adv-x="741" d="M156 0V746H265V109H719V0H156Z"  />
<glyph unicode="M" horiz-adv-x="1037" d="M779 0V522L514 61L256 522V0H150V746H257L514 281L780 746H888V0H779Z"  />
<glyph unicode="N" horiz-adv-x="963" d="M708 0L258 568V0H151V746H257L706 176V746H816V0H708Z"  />
<glyph unicode="O" horiz-adv-x="1000" d="M901 372Q901 289 869 218T781 95T653 12T499 -18Q414 -18 341 13T214 98T129 226T98 384Q98 466 130 536T218 658T347 739T500 768Q583 768 656 738T783 654T869 528T901 372ZM793 378Q793 439 770 490T706 579T612 637T499 658Q437 658 383 637T290 578T228 487T205 371Q205 311 229 260T294 171T388 113T500 92Q560 92 613 114T706 174T769 265T793 378Z"  />
<glyph unicode="P" horiz-adv-x="870" d="M804 533Q804 483 789 444T745 376T676 332T586 317H262V0H153V746H586Q635 746 675 732T744 690T788 623T804 533ZM696 533Q696 589 668 613T586 637H262V427H586Q639 427 667 453T696 533Z"  />
<glyph unicode="Q" horiz-adv-x="1000" d="M904 372Q904 274 865 201T751 67L844 -28L752 -92L653 10Q613 -4 578 -10T501 -17Q418 -17 346 13T219 95T133 219T101 374Q101 457 133 529T221 654T349 737T504 768Q588 768 661 738T788 654T873 529T904 372ZM795 378Q795 439 772 490T709 579T616 637T502 658Q442 658 388 637T294 579T231 490T207 376Q207 313 231 261T296 170T392 111T508 90Q538 90 568 99L529 139L624 197L674 147Q732 191 763 247T795 378Z"  />
<glyph unicode="R" horiz-adv-x="889" d="M824 526Q824 441 779 387T652 313L807 0H684L534 309H256V0H147V746H589Q640 746 683 732T757 689T806 620T824 526ZM716 532Q716 561 706 581T679 614T639 632T589 638H256V418H589Q645 418 680 445T716 532Z"  />
<glyph unicode="S" horiz-adv-x="833" d="M772 218Q772 150 738 105T651 33T536 -5T419 -17Q305 -17 216 18T46 136L122 209Q158 176 193 154T265 118T344 99T434 93Q465 93 505 98T580 119T640 160T665 227Q665 255 652 276T615 312Q600 321 585 326T549 335T499 339T429 341L317 343Q273 344 233 356T163 391T114 450T95 534Q95 575 110 609T152 670T211 716T281 747Q313 757 345 761T410 766Q495 766 573 741T720 664L659 577Q629 596 602 610T548 635T490 650T424 655Q397 655 359 650T287 632T229 595T205 535Q205 508 216 491T246 465T286 452T331 449H442Q473 449 501 448T557 443T612 430T667 404Q718 374 745 326T772 218Z"  />
<glyph unicode="T" horiz-adv-x="759" d="M432 637V0H326V637H60V746H695V637H432Z"  />
<glyph unicode="U" horiz-adv-x="963" d="M810 283Q810 254 809 230T802 183T786 138T757 93Q733 61 700 41T629 8T551 -10T474 -15Q435 -15 395 -9T318 12T248 50T193 108Q164 150 158 191T151 283V746H259V283Q259 244 265 211T301 149Q319 131 342 121T390 104T441 96T491 94Q542 94 581 103T648 133T689 191T703 283V746H810V283H810Z"  />
<glyph unicode="V" horiz-adv-x="833" d="M477 0H348L20 746H138L413 122L690 746H810L477 0Z"  />
<glyph unicode="W" horiz-adv-x="1019" d="M771 0H659L507 528L360 0H242L19 746H131L299 193L452 746H558L715 193L880 746H994L771 0Z"  />
<glyph unicode="X" horiz-adv-x="796" d="M630 0L401 314L164 0H25L331 405L85 746H217L401 497L588 746H723L470 405L768 0H630Z"  />
<glyph unicode="Y" horiz-adv-x="759" d="M435 323V0H327V323L24 746H155L383 430L608 746H743L435 323Z"  />
<glyph unicode="Z" horiz-adv-x="704" d="M57 0L22 75L498 636H64V746H633L672 672L194 111H678V0H57Z"  />
<glyph unicode="[" horiz-adv-x="426" d="M139 0V748H317V668H237V78H317V0H139Z"  />
<glyph unicode="\" horiz-adv-x="630" d="M457 -29L39 745H163L579 -29H457Z"  />
<glyph unicode="]" horiz-adv-x="426" d="M119 0V78H199V668H119V748H297V0H119Z"  />
<glyph unicode="^" horiz-adv-x="889" d="M570 352L445 577L319 352H213L400 668H489L676 352H570Z"  />
<glyph unicode="_" horiz-adv-x="500" d="M0 -125V-76H500V-125H0Z"  />
<glyph unicode="`" horiz-adv-x="389" d="M201 573L96 695H213L293 573H201Z"  />
<glyph unicode="a" horiz-adv-x="685" d="M540 0L488 109H185L133 0H15L266 518H404L658 0H540ZM336 417L236 212H436L336 417Z"  />
<glyph unicode="b" horiz-adv-x="741" d="M643 162Q643 121 629 91T590 40T532 10T459 0H121V518H459Q493 518 521 513T575 482Q596 462 606 435T617 378Q617 362 616 350T610 327T599 306T582 283Q614 257 628 231T643 162ZM511 371Q511 397 497 405T459 414H224V325H459Q486 325 498 333T511 371ZM540 164Q540 182 533 193T515 211T489 220T459 222H224V104H459Q475 104 489 106T515 115T533 133T540 164Z"  />
<glyph unicode="c" horiz-adv-x="741" d="M679 64Q643 41 614 26T555 1T492 -13T415 -17Q354 -17 297 0T195 51T123 135T96 253Q96 318 121 370T188 459T287 515T405 535Q447 535 481 529T546 510T607 478T670 435L609 344Q562 385 514 407T403 429Q366 429 330 417T265 383T218 329T200 257Q200 215 218 184T267 131T334 98T408 87Q444 87 472 91T526 104T577 126T632 160L679 64H679Z"  />
<glyph unicode="d" horiz-adv-x="759" d="M694 263Q694 203 676 154T623 71T540 19T432 0H151V518H432Q491 518 539 502T621 453T675 373T694 263ZM589 261Q589 337 548 375T432 414H259V104H432Q507 104 548 145T589 261Z"  />
<glyph unicode="e" horiz-adv-x="685" d="M154 0V518H612V414H256V319H444V216H256V104H624V0H154Z"  />
<glyph unicode="f" horiz-adv-x="667" d="M256 414V319H444V216H256V0H154V518H612V414H256Z"  />
<glyph unicode="g" horiz-adv-x="722" d="M634 77Q604 53 576 35T517 6T454 -11T382 -17Q320 -17 264 1T164 54T94 141T68 259Q68 325 94 376T163 462T262 516T380 535Q445 535 507 519T624 469L563 365Q519 395 474 412T375 430Q337 430 301 419T236 387T190 334T173 260Q173 218 189 186T233 133T295 100T370 89Q395 89 415 92T453 100T489 115T528 136V198H401V295H634V77H634Z"  />
<glyph unicode="h" horiz-adv-x="796" d="M539 0V217H257V0H155V518H257V322H539V518H641V0H539Z"  />
<glyph unicode="i" horiz-adv-x="389" d="M154 0V518H256V0H154Z"  />
<glyph unicode="j" horiz-adv-x="648" d="M493 194Q493 141 474 102T423 36T347 -3T254 -17Q173 -17 119 17T24 121L112 181Q139 134 172 111T262 88Q287 88 310 94T351 113T380 146T391 194V518H493V194H493Z"  />
<glyph unicode="k" horiz-adv-x="667" d="M518 0L356 256L257 160V0H154V518H257V304L474 518H614L432 334L643 0H518Z"  />
<glyph unicode="l" horiz-adv-x="574" d="M147 0V518H254V106H549V0H147Z"  />
<glyph unicode="m" horiz-adv-x="870" d="M618 0V330L437 70L254 330V0H151V518H255L437 258L618 518H721V0H618Z"  />
<glyph unicode="n" horiz-adv-x="796" d="M543 0L255 351V0H152V518H255L543 168V518H646V0H543Z"  />
<glyph unicode="o" horiz-adv-x="833" d="M734 264Q734 198 707 146T636 58T533 2T414 -17Q353 -17 296 2T195 56T124 143T97 261Q97 327 124 378T195 464T297 517T415 535Q476 535 533 518T635 467T707 382T734 264ZM629 263Q629 306 610 337T561 389T492 419T416 429Q377 429 339 419T270 388T221 335T202 259Q202 215 221 183T271 130T340 99T417 89Q455 89 493 100T561 134T610 188T629 263Z"  />
<glyph unicode="p" horiz-adv-x="704" d="M646 354Q646 321 635 290T600 234Q585 217 569 208T536 194T499 188T459 187H250V0H148V518H477Q513 518 537 512T590 481Q617 458 631 424T646 354ZM541 355Q541 374 534 385T516 403T490 412T459 414H250V290H459Q496 290 518 301T541 355Z"  />
<glyph unicode="q" horiz-adv-x="815" d="M726 258Q726 188 696 138T613 45L679 -29L580 -70L514 -2Q487 -9 460 -13T403 -17Q343 -17 287 2T187 56T117 143T90 260Q90 327 118 378T192 464T296 517T416 535Q477 535 533 516T632 462T700 375T726 258ZM621 261Q621 305 602 336T553 388T484 419T407 429Q368 429 330 419T263 387T215 333T196 257Q196 219 212 188T256 135T317 101T388 89Q409 89 430 92L404 124L503 166L539 127Q577 152 599 183T621 261Z"  />
<glyph unicode="r" horiz-adv-x="722" d="M546 0L415 212H250V0H145V518H499Q528 518 551 513T598 490Q629 468 645 434T662 362Q662 303 631 266T546 212L677 0H546ZM557 365Q557 382 550 392T533 407T508 413T481 414H250V315H499Q522 315 539 327T557 365Z"  />
<glyph unicode="s" horiz-adv-x="685" d="M621 156Q621 102 595 68T529 15T442 -11T352 -18Q304 -18 267 -14T198 0T133 28T61 74L109 167Q147 143 178 128T240 103T306 91T386 87Q403 87 425 90T468 101T502 124T516 161Q516 177 509 186T490 202T464 210T438 213Q399 215 361 215T283 217Q247 218 213 228T153 257T110 306T94 376Q94 425 117 456T176 504T255 528T337 535Q409 535 466 518T587 467L540 375Q484 404 430 418T312 432Q298 432 279 430T241 421T211 403T198 372Q198 356 208 347T232 332T262 324T290 322Q324 320 357 320T425 319Q464 317 499 308T562 280T605 231T621 156Z"  />
<glyph unicode="t" horiz-adv-x="611" d="M355 415V0H252V415H64V518H550V415H355Z"  />
<glyph unicode="u" horiz-adv-x="796" d="M647 203Q647 162 641 130T608 65Q589 42 564 26T509 1T450 -13T391 -17Q337 -17 292 -4T215 36T165 104T147 203V518H250V203Q250 163 262 140T295 106T344 91T406 88Q430 88 457 93T506 111Q528 123 536 142T545 203V518H647V203H647Z"  />
<glyph unicode="v" horiz-adv-x="667" d="M398 0H265L20 518H136L331 105L530 518H647L398 0Z"  />
<glyph unicode="w" horiz-adv-x="833" d="M655 0H516L416 380L316 0H179L20 518H131L245 138L351 518H485L588 138L707 518H817L655 0Z"  />
<glyph unicode="x" horiz-adv-x="667" d="M501 0L335 198L166 0H25L264 280L64 517H205L335 359L472 517H609L405 280L641 0H501Z"  />
<glyph unicode="y" horiz-adv-x="574" d="M345 209V0H243V209L25 518H155L293 314L435 518H559L345 209Z"  />
<glyph unicode="z" horiz-adv-x="537" d="M52 0L16 67L337 414H52V518H475L521 448L198 104H521V0H52Z"  />
<glyph unicode="{" horiz-adv-x="426" d="M333 -16Q283 -16 250 -9T196 15T166 56T157 118V271Q157 292 155 306T143 330T118 343T73 347V406Q98 406 114 409T140 420T152 442T156 481V627Q156 663 165 688T195 730T249 753T333 761V695Q308 695 292 692T266 682T252 662T248 629V496Q248 450 234 420T188 375Q220 361 233 332T247 257V116Q247 78 265 64T333 50V-16H333Z"  />
<glyph unicode="|" horiz-adv-x="372" d="M140 -250V750H232V-250H140Z"  />
<glyph unicode="}" horiz-adv-x="426" d="M363 347Q335 347 319 343T294 330T283 307T280 271V118Q280 82 271 57T241 15T186 -8T103 -16V50Q153 50 170 64T188 116V257Q188 303 202 332T248 375Q216 389 203 419T189 496V629Q189 649 185 661T171 681T145 692T103 695V761Q152 761 186 754T240 730T270 689T279 627V481Q279 457 282 443T295 420T321 409T363 406V347H363Z"  />
<glyph unicode="~" horiz-adv-x="889" d="M709 234Q697 221 682 206T649 179T609 158T561 149Q526 149 496 158T438 180T387 201T338 211Q326 211 313 204T288 188T265 168T248 150L188 222Q201 238 218 253T255 281T295 300T333 308Q364 308 392 299T448 279T501 258T555 249Q588 249 610 266T649 306L709 234H709Z"  />
<glyph unicode="&#xA0;" horiz-adv-x="370" />
<glyph unicode="&#xA1;" horiz-adv-x="352" d="M250 693Q250 663 229 642T178 620Q148 620 127 642T106 693Q106 723 127 744T178 766Q208 766 229 744T250 693ZM122 0L143 552H214L233 0H122Z"  />
<glyph unicode="&#xA2;" horiz-adv-x="889" d="M753 125Q723 106 698 92T647 69T594 55T529 46V-47H430V48Q377 54 330 75T248 130T191 211T170 313Q170 370 190 417T245 501T327 559T430 590V684H529V590Q592 584 643 558T744 496L683 405Q651 434 612 453T529 481V154Q558 158 580 163T622 175T662 194T706 220L753 125ZM430 482Q400 480 372 465T322 428T287 376T274 317Q274 284 287 257T321 209T371 175T430 156V482Z"  />
<glyph unicode="&#xA3;" horiz-adv-x="889" d="M641 463Q641 492 629 513T599 547T556 567T506 573Q436 573 402 536T368 428V373H540V274H368V107H720V0H169V107H259V274H169V373H259V455Q259 512 279 553T335 619T417 657T516 669Q557 669 598 658T672 625T725 567T746 485V463H641Z"  />
<glyph unicode="&#xA4;" horiz-adv-x="753" d="M610 174Q599 163 588 152T566 129Q533 163 499 196Q475 178 445 168T382 158Q357 158 326 166T266 196Q249 179 232 163T198 129Q187 140 177 151T155 174Q172 190 189 206T223 239Q205 265 195 294T185 354Q185 385 194 415T223 469Q206 486 189 502T155 535Q166 546 176 557T198 580Q215 563 232 547T266 513Q296 534 326 542T382 551Q410 551 441 542T498 513Q515 530 532 546T566 580Q577 569 588 558T610 535Q593 518 576 502T542 469Q562 441 571 412T580 354Q580 292 542 239Q559 223 576 207T610 174ZM518 355Q518 385 507 409T476 452T433 479T383 489Q354 489 329 478T286 449T258 407T247 355Q247 328 257 303T286 260T329 230T382 219Q410 219 435 230T478 259T507 302T518 355Z"  />
<glyph unicode="&#xA5;" horiz-adv-x="759" d="M526 404H657V337H474L429 281V262H657V195H430V0H326V195H97V262H326V281L282 337H97V404H230L34 652H157L379 375L597 652H725L526 404Z"  />
<glyph unicode="&#xA6;" horiz-adv-x="372" d="M140 325V675H232V325H140ZM140 -175V175H232V-175H140Z"  />
<glyph unicode="&#xA7;" horiz-adv-x="611" d="M539 348Q539 315 522 292T484 253Q502 236 516 209T531 144Q531 104 514 73T465 20T389 -13T292 -24Q266 -24 236 -20T176 -5T118 21T66 60L104 145Q155 100 200 81T293 62Q354 62 394 80T434 143Q434 170 412 186T359 213L206 271Q181 280 159 293T119 326T92 369T82 425Q82 455 98 482T135 525Q101 562 101 616Q101 659 120 688T170 735T236 761T305 769Q331 769 360 764T417 749T473 724T521 687L484 602Q466 621 444 635T399 660T352 675T307 681Q257 681 229 668T200 619Q200 596 219 579T264 552L417 495Q441 486 463 472T502 440T529 398T539 348ZM439 344Q439 368 424 382T379 409L209 478Q197 470 188 458T179 428Q179 400 201 383T256 354L409 296Q423 304 431 317T439 344Z"  />
<glyph unicode="&#xA8;" horiz-adv-x="389" d="M239 586V683H331V586H239ZM58 586V683H150V586H58Z"  />
<glyph unicode="&#xA9;" horiz-adv-x="945" d="M862 372Q862 291 832 221T748 97T624 14T472 -17Q391 -17 321 13T197 97T114 220T83 372Q83 453 113 523T197 647T320 730T472 761Q553 761 624 731T748 647T831 524T862 372ZM784 372Q784 437 760 493T693 592T594 658T473 683Q408 683 351 659T252 592T186 493T161 372Q161 308 185 251T252 152T351 85T473 60Q537 60 594 84T693 151T759 250T784 372ZM676 261Q641 226 594 199T486 172Q440 172 399 186T326 227T275 291T256 375Q256 420 274 457T322 522T393 564T480 579Q510 579 538 572T590 552T635 523T671 489L611 434Q590 460 554 479T478 498Q451 498 426 489T383 463T353 424T342 376Q342 348 353 326T385 287T431 262T488 253Q528 253 560 274T618 323L676 261Z"  />
<glyph unicode="&#xAA;" horiz-adv-x="500" d="M341 304V342Q334 332 325 323T301 306T266 293T216 288Q186 288 158 295T108 317T73 357T60 415Q60 443 68 462T91 495T127 515T174 526Q194 529 219 530T265 531L341 532Q341 553 333 566T312 587T281 597T245 600Q216 600 192 592T158 559H79Q87 594 105 615T148 648T202 664T264 668Q342 668 381 636T420 525V304H341ZM234 463Q192 463 166 454T139 415Q139 399 146 389T166 372T193 362T222 359Q280 359 310 385T344 463H234Z"  />
<glyph unicode="&#xAB;" horiz-adv-x="593" d="M429 67L295 263L429 456H529L414 263L529 67H429ZM197 67L63 263L197 456H297L182 263L297 67H197Z"  />
<glyph unicode="&#xAC;" horiz-adv-x="889" d="M590 97V277H207V370H682V97H590Z"  />
<glyph unicode="&#xAD;" horiz-adv-x="610" d="M130 200V319H480V200H130Z"  />
<glyph unicode="&#xAE;" horiz-adv-x="945" d="M862 372Q862 291 832 221T748 97T625 14T473 -17Q392 -17 321 13T197 97T114 220T83 372Q83 453 113 523T197 647T320 730T472 761Q553 761 624 731T748 647T831 524T862 372ZM784 372Q784 437 760 493T693 592T594 658T473 683Q408 683 351 659T252 592T186 493T161 372Q161 308 185 251T252 152T351 85T472 60Q537 60 594 84T693 151T759 250T784 372ZM577 183L496 329H388V183H307V577H503Q524 577 539 577T567 574T590 567T613 554Q639 537 652 510T665 453Q665 415 644 382T585 336L671 183H577ZM584 452Q584 495 527 495H388V411H520Q544 411 553 412T568 418Q575 423 579 432T584 452Z"  />
<glyph unicode="&#xAF;" horiz-adv-x="389" d="M59 606V671H330V606H59Z"  />
<glyph unicode="&#xB0;" horiz-adv-x="389" d="M318 645Q318 619 309 597T282 557T243 531T195 521Q169 521 147 530T107 557T81 596T71 644Q71 670 80 692T107 732T146 758T194 768Q220 768 242 759T282 732T308 693T318 645ZM252 644Q252 667 235 684T194 702Q170 702 154 685T137 644Q137 620 154 604T194 587Q217 587 234 603T252 644Z"  />
<glyph unicode="&#xB1;" horiz-adv-x="889" d="M491 219V59H398V219H207V312H398V468H491V312H682V219H491ZM207 -94V-1H682V-94H207Z"  />
<glyph unicode="&#xB2;" horiz-adv-x="519" d="M459 539Q459 512 446 492T412 459T367 438T320 430Q290 429 259 426T204 414T164 389T148 348H450V262H51Q50 277 49 288T48 310Q48 347 60 378T96 434T150 473T219 495Q241 498 263 501T307 507Q314 508 323 510T341 515T354 525T360 540Q360 553 350 561T324 574T293 580T267 582Q241 582 221 580T182 573T143 560T97 540L60 618Q93 634 118 643T167 658T216 666T275 668Q306 668 338 662T398 642T442 602T459 539Z"  />
<glyph unicode="&#xB3;" horiz-adv-x="519" d="M490 379Q490 338 464 314T400 277T323 259T255 255Q195 255 141 266T30 312L77 383Q122 357 163 349T253 340Q271 340 294 341T339 346T374 358T389 382Q389 405 371 414T332 426Q318 428 290 430T220 432V511Q228 511 243 511T277 514Q292 515 307 517T335 524T355 535T363 551Q363 563 353 570T329 581T301 587T277 589Q253 589 234 587T196 581T157 569T113 552L71 628Q102 643 126 652T173 667T220 674T277 676Q303 676 335 671T396 652T444 616T463 558Q463 530 451 512T419 480Q448 464 469 441T490 379Z"  />
<glyph unicode="&#xB4;" horiz-adv-x="389" d="M178 573H87L167 695H284L178 573Z"  />
<glyph unicode="&#xB5;" horiz-adv-x="796" d="M550 0V54Q545 47 531 35T495 12T449 -8T395 -17Q369 -17 346 -11T303 5T270 26T250 50V-153H147V518H250V203Q250 163 263 140T296 106T343 91T397 88Q429 88 456 93T503 111T534 146T545 203V518H647V0H550Z"  />
<glyph unicode="&#xB6;" horiz-adv-x="833" d="M644 0V650H563V0H457V303H347Q325 303 303 303T257 308T212 319T168 341Q120 373 98 422T76 523Q76 571 94 617T153 698Q190 729 229 737T314 746H747V0H644ZM457 650H314Q249 650 217 622T185 525Q185 495 196 467T232 424Q252 413 276 408T347 403H457V650Z"  />
<glyph unicode="&#xB7;" horiz-adv-x="370" d="M255 355Q255 326 235 305T185 283Q155 283 135 304T115 355Q115 384 135 405T185 427Q215 427 235 406T255 355Z"  />
<glyph unicode="&#xB8;" horiz-adv-x="389" d="M320 -149Q320 -178 307 -196T272 -225T226 -240T178 -244Q160 -244 147 -243T121 -238T97 -228T69 -214L94 -159Q103 -164 110 -167T127 -173T148 -177T180 -179Q188 -179 197 -178T214 -172T227 -162T232 -145Q232 -127 216 -120T186 -113Q174 -113 163 -115T141 -121L120 -94L196 10H277L218 -69Q239 -69 257 -72T290 -85T312 -109T320 -149Z"  />
<glyph unicode="&#xB9;" horiz-adv-x="519" d="M212 267V659H307V267H212Z"  />
<glyph unicode="&#xBA;" horiz-adv-x="500" d="M470 476Q470 429 452 394T403 336T334 301T254 289Q212 289 173 301T104 338T56 398T38 481Q38 526 56 561T105 619T173 655T251 668Q292 668 331 656T401 619T451 558T470 476ZM387 476Q387 503 376 524T346 560T303 583T253 591Q228 591 204 584T162 562T132 527T121 479Q121 452 132 431T162 396T205 374T255 366Q280 366 304 373T346 394T376 428T387 476Z"  />
<glyph unicode="&#xBB;" horiz-adv-x="593" d="M395 67H295L410 263L295 456H395L529 263L395 67ZM163 67H63L179 263L63 456H163L298 263L163 67Z"  />
<glyph unicode="&#xBC;" horiz-adv-x="1241" d="M999 96V0H906V96H642L610 169L895 412H998V177H1089V96H999ZM294 -40H198L748 718H845L294 -40ZM172 267V659H267V267H172ZM906 316L733 177H906V316Z"  />
<glyph unicode="&#xBD;" horiz-adv-x="1241" d="M1096 277Q1096 250 1083 230T1049 197T1004 176T957 168Q927 167 896 164T841 152T801 127T785 86H1087V0H688Q687 15 686 26T685 48Q685 85 697 116T733 172T787 211T856 233Q878 236 900 239T944 245Q951 246 960 248T978 253T991 263T997 278Q997 291 987 299T961 312T930 318T904 320Q878 320 858 318T819 311T780 298T734 278L697 356Q730 372 755 381T804 396T853 404T912 406Q943 406 975 400T1035 380T1079 340T1096 277ZM284 -40H188L738 718H835L284 -40ZM157 267V659H252V267H157Z"  />
<glyph unicode="&#xBE;" horiz-adv-x="1241" d="M1089 96V0H996V96H732L700 169L985 412H1088V177H1179V96H1089ZM424 -40H328L878 718H975L424 -40ZM505 379Q505 338 479 314T415 277T338 259T270 255Q210 255 156 266T45 312L92 383Q137 357 178 349T268 340Q286 340 309 341T354 346T389 358T404 382Q404 405 386 414T347 426Q333 428 305 430T235 432V511Q243 511 258 511T292 514Q307 515 322 517T350 524T370 535T378 551Q378 563 368 570T344 581T316 587T292 589Q268 589 249 587T211 581T172 569T128 552L86 628Q117 643 141 652T188 667T235 674T292 676Q318 676 350 671T411 652T459 616T478 558Q478 530 466 512T434 480Q463 464 484 441T505 379ZM996 316L823 177H996V316Z"  />
<glyph unicode="&#xBF;" horiz-adv-x="593" d="M435 695Q435 665 414 644T363 622Q333 622 312 644T291 695Q291 725 312 746T363 768Q393 768 414 746T435 695ZM530 2Q481 -12 433 -15T333 -18Q283 -18 236 -10T153 21T95 81T73 178Q73 239 104 283T182 363L283 439Q297 450 302 464T307 496V561H420V487Q420 442 412 420T379 379L273 297Q244 274 222 246T199 179Q199 146 216 128T260 99T316 87T370 84Q412 84 451 89T530 105V2Z"  />
<glyph unicode="&#xC0;" horiz-adv-x="833" d="M688 0L581 243H246L135 0H17L356 745H476L810 0H688ZM414 613L296 353H532L414 613ZM411 813L306 935H423L503 813H411Z"  />
<glyph unicode="&#xC1;" horiz-adv-x="833" d="M688 0L581 243H246L135 0H17L356 745H476L810 0H688ZM414 613L296 353H532L414 613ZM418 813H327L407 935H524L418 813Z"  />
<glyph unicode="&#xC2;" horiz-adv-x="833" d="M688 0L581 243H246L135 0H17L356 745H476L810 0H688ZM414 613L296 353H532L414 613ZM473 813L413 885L359 813H271L359 937H472L562 813H473Z"  />
<glyph unicode="&#xC3;" horiz-adv-x="833" d="M688 0L581 243H246L135 0H17L356 745H476L810 0H688ZM414 613L296 353H532L414 613ZM572 926Q571 904 567 885T554 850T529 827T487 818Q461 818 439 822T398 831T365 840T339 844Q324 844 318 836T312 813H237Q237 863 256 892T330 921Q348 921 365 918T399 910T432 902T465 898Q480 898 489 903T498 926H572H572Z"  />
<glyph unicode="&#xC4;" horiz-adv-x="833" d="M688 0L581 243H246L135 0H17L356 745H476L810 0H688ZM414 613L296 353H532L414 613ZM456 826V923H548V826H456ZM275 826V923H367V826H275Z"  />
<glyph unicode="&#xC5;" horiz-adv-x="833" d="M688 0L581 243H246L135 0H17L356 745H476L810 0H688ZM414 613L296 353H532L414 613ZM526 927Q526 903 517 883T493 847T456 822T412 813Q388 813 368 822T331 846T306 882T297 927Q297 951 306 971T330 1007T367 1032T411 1041Q435 1041 455 1032T492 1008T517 972T526 927ZM461 927Q461 947 447 962T412 977Q391 977 376 963T361 927Q361 907 376 893T411 878Q431 878 445 892T460 927H461Z"  />
<glyph unicode="&#xC6;" horiz-adv-x="1297" d="M595 0V245H315L135 0H17L578 746H1209V636H704V441H959V333H704V109H1229V0H595ZM595 633L394 355H595V633Z"  />
<glyph unicode="&#xC7;" horiz-adv-x="926" d="M864 134Q846 113 832 98T801 71T767 49T724 26Q702 16 683 9T644 -3T605 -11T561 -16L522 -69Q541 -69 559 -72T592 -84T614 -107T623 -145Q623 -176 610 -195T576 -225T530 -240T479 -244Q446 -244 424 -238T373 -214L398 -159Q418 -171 438 -175T482 -180Q489 -180 498 -179T516 -173T530 -163T536 -146Q536 -128 520 -121T490 -113Q468 -113 444 -121L425 -94L481 -17Q398 -9 327 20T205 99T124 218T94 375Q94 459 124 530T208 653T334 734T489 764Q595 764 686 724T852 611L771 542Q710 593 645 624T498 655Q437 655 383 635T289 578T225 489T201 374Q201 306 227 254T297 165T400 111T521 92Q590 92 654 115Q698 131 729 155T792 212L864 134H864Z"  />
<glyph unicode="&#xC8;" horiz-adv-x="852" d="M151 0V746H765V636H260V441H514V333H260V109H784V0H151ZM461 813L356 935H473L553 813H461Z"  />
<glyph unicode="&#xC9;" horiz-adv-x="852" d="M151 0V746H765V636H260V441H514V333H260V109H784V0H151ZM478 813H387L467 935H584L478 813Z"  />
<glyph unicode="&#xCA;" horiz-adv-x="852" d="M151 0V746H765V636H260V441H514V333H260V109H784V0H151ZM521 813L461 885L407 813H319L407 937H520L610 813H521Z"  />
<glyph unicode="&#xCB;" horiz-adv-x="852" d="M151 0V746H765V636H260V441H514V333H260V109H784V0H151ZM499 826V923H591V826H499ZM318 826V923H410V826H318Z"  />
<glyph unicode="&#xCC;" horiz-adv-x="389" d="M143 0V746H250V0H143ZM192 813L87 935H204L284 813H192Z"  />
<glyph unicode="&#xCD;" horiz-adv-x="389" d="M143 0V746H250V0H143ZM198 813H107L187 935H304L198 813Z"  />
<glyph unicode="&#xCE;" horiz-adv-x="389" d="M143 0V746H250V0H143ZM252 813L192 885L138 813H50L138 937H251L341 813H252Z"  />
<glyph unicode="&#xCF;" horiz-adv-x="389" d="M143 0V746H250V0H143ZM239 826V923H331V826H239ZM58 826V923H150V826H58Z"  />
<glyph unicode="&#xD0;" horiz-adv-x="926" d="M863 376Q863 300 834 227T752 99Q701 44 645 22T514 0H151V334H20V442H151V746H514Q558 746 597 739T675 709Q718 685 753 648T812 567T850 474T863 376ZM753 368Q753 422 738 471T692 556T617 615T514 637H258V442H480V334H258V109H514Q568 109 612 130T688 186T736 269T753 368Z"  />
<glyph unicode="&#xD1;" horiz-adv-x="963" d="M708 0L258 568V0H151V746H257L706 176V746H816V0H708ZM645 926Q644 904 640 885T627 850T602 827T560 818Q534 818 512 822T471 831T438 840T412 844Q397 844 391 836T385 813H310Q310 863 329 892T403 921Q421 921 438 918T472 910T505 902T538 898Q553 898 562 903T571 926H645H645Z"  />
<glyph unicode="&#xD2;" horiz-adv-x="1000" d="M901 372Q901 289 869 218T781 95T653 12T499 -18Q414 -18 341 13T214 98T129 226T98 384Q98 466 130 536T218 658T347 739T500 768Q583 768 656 738T783 654T869 528T901 372ZM793 378Q793 439 770 490T706 579T612 637T499 658Q437 658 383 637T290 578T228 487T205 371Q205 311 229 260T294 171T388 113T500 92Q560 92 613 114T706 174T769 265T793 378ZM491 813L386 935H503L583 813H491Z"  />
<glyph unicode="&#xD3;" horiz-adv-x="1000" d="M901 372Q901 289 869 218T781 95T653 12T499 -18Q414 -18 341 13T214 98T129 226T98 384Q98 466 130 536T218 658T347 739T500 768Q583 768 656 738T783 654T869 528T901 372ZM793 378Q793 439 770 490T706 579T612 637T499 658Q437 658 383 637T290 578T228 487T205 371Q205 311 229 260T294 171T388 113T500 92Q560 92 613 114T706 174T769 265T793 378ZM518 813H427L507 935H624L518 813Z"  />
<glyph unicode="&#xD4;" horiz-adv-x="1000" d="M901 372Q901 289 869 218T781 95T653 12T499 -18Q414 -18 341 13T214 98T129 226T98 384Q98 466 130 536T218 658T347 739T500 768Q583 768 656 738T783 654T869 528T901 372ZM793 378Q793 439 770 490T706 579T612 637T499 658Q437 658 383 637T290 578T228 487T205 371Q205 311 229 260T294 171T388 113T500 92Q560 92 613 114T706 174T769 265T793 378ZM559 813L499 885L445 813H357L445 937H558L648 813H559Z"  />
<glyph unicode="&#xD5;" horiz-adv-x="1000" d="M901 372Q901 289 869 218T781 95T653 12T499 -18Q414 -18 341 13T214 98T129 226T98 384Q98 466 130 536T218 658T347 739T500 768Q583 768 656 738T783 654T869 528T901 372ZM793 378Q793 439 770 490T706 579T612 637T499 658Q437 658 383 637T290 578T228 487T205 371Q205 311 229 260T294 171T388 113T500 92Q560 92 613 114T706 174T769 265T793 378ZM662 926Q661 904 657 885T644 850T619 827T577 818Q551 818 529 822T488 831T455 840T429 844Q414 844 408 836T402 813H327Q327 863 346 892T420 921Q438 921 455 918T489 910T522 902T555 898Q570 898 579 903T588 926H662H662Z"  />
<glyph unicode="&#xD6;" horiz-adv-x="1000" d="M901 372Q901 289 869 218T781 95T653 12T499 -18Q414 -18 341 13T214 98T129 226T98 384Q98 466 130 536T218 658T347 739T500 768Q583 768 656 738T783 654T869 528T901 372ZM793 378Q793 439 770 490T706 579T612 637T499 658Q437 658 383 637T290 578T228 487T205 371Q205 311 229 260T294 171T388 113T500 92Q560 92 613 114T706 174T769 265T793 378ZM546 826V923H638V826H546ZM365 826V923H457V826H365Z"  />
<glyph unicode="&#xD7;" horiz-adv-x="889" d="M510 234L654 90L588 24L444 168L299 22L233 88L379 233L235 377L301 443L445 299L590 445L656 379L510 234Z"  />
<glyph unicode="&#xD8;" horiz-adv-x="1000" d="M901 372Q901 290 869 219T782 95T654 12T500 -18Q438 -18 380 -1T270 52L169 -61L102 0L202 111Q152 166 125 236T98 381Q98 464 130 535T217 657T345 738T499 768Q565 768 620 752T730 698L815 792L882 731L799 638Q848 583 874 514T901 372ZM793 378Q793 481 727 558L344 134Q379 113 419 103T500 92Q560 92 613 114T706 174T769 265T793 378ZM657 616Q635 629 617 637T581 650T543 656T498 658Q438 658 385 637T291 579T228 489T205 376Q205 325 222 277T274 191L657 616Z"  />
<glyph unicode="&#xD9;" horiz-adv-x="963" d="M810 283Q810 254 809 230T802 183T786 138T757 93Q733 61 700 41T629 8T551 -10T474 -15Q435 -15 395 -9T318 12T248 50T193 108Q164 150 158 191T151 283V746H259V283Q259 244 265 211T301 149Q319 131 342 121T390 104T441 96T491 94Q542 94 581 103T648 133T689 191T703 283V746H810V283H810ZM471 813L366 935H483L563 813H471Z"  />
<glyph unicode="&#xDA;" horiz-adv-x="963" d="M810 283Q810 254 809 230T802 183T786 138T757 93Q733 61 700 41T629 8T551 -10T474 -15Q435 -15 395 -9T318 12T248 50T193 108Q164 150 158 191T151 283V746H259V283Q259 244 265 211T301 149Q319 131 342 121T390 104T441 96T491 94Q542 94 581 103T648 133T689 191T703 283V746H810V283H810ZM508 813H417L497 935H614L508 813Z"  />
<glyph unicode="&#xDB;" horiz-adv-x="963" d="M810 283Q810 254 809 230T802 183T786 138T757 93Q733 61 700 41T629 8T551 -10T474 -15Q435 -15 395 -9T318 12T248 50T193 108Q164 150 158 191T151 283V746H259V283Q259 244 265 211T301 149Q319 131 342 121T390 104T441 96T491 94Q542 94 581 103T648 133T689 191T703 283V746H810V283H810ZM534 813L474 885L420 813H332L420 937H533L623 813H534Z"  />
<glyph unicode="&#xDC;" horiz-adv-x="963" d="M810 283Q810 254 809 230T802 183T786 138T757 93Q733 61 700 41T629 8T551 -10T474 -15Q435 -15 395 -9T318 12T248 50T193 108Q164 150 158 191T151 283V746H259V283Q259 244 265 211T301 149Q319 131 342 121T390 104T441 96T491 94Q542 94 581 103T648 133T689 191T703 283V746H810V283H810ZM520 826V923H612V826H520ZM339 826V923H431V826H339Z"  />
<glyph unicode="&#xDD;" horiz-adv-x="759" d="M435 323V0H327V323L24 746H155L383 430L608 746H743L435 323ZM411 813H320L400 935H517L411 813Z"  />
<glyph unicode="&#xDE;" horiz-adv-x="870" d="M804 383Q804 333 789 294T745 226T676 182T586 167H262V0H153V746H262V595H586Q635 595 675 581T744 539T788 473T804 383ZM696 382Q696 439 668 462T586 486H262V276H586Q639 276 667 302T696 382Z"  />
<glyph unicode="&#xDF;" horiz-adv-x="1372" d="M1311 156Q1311 102 1285 68T1219 15T1132 -11T1042 -18Q994 -18 957 -14T888 0T823 28T751 74L799 167Q837 143 868 128T930 103T996 91T1076 87Q1093 87 1115 90T1158 101T1192 124T1206 161Q1206 177 1199 186T1180 202T1154 210T1128 213Q1089 215 1051 215T973 217Q937 218 903 228T843 257T800 306T784 376Q784 425 807 456T866 504T945 528T1027 535Q1099 535 1156 518T1277 467L1230 375Q1174 404 1120 418T1002 432Q988 432 969 430T931 421T901 403T888 372Q888 356 898 347T922 332T952 324T980 322Q1014 320 1047 320T1115 319Q1154 317 1189 308T1252 280T1295 231T1311 156ZM621 156Q621 102 595 68T529 15T442 -11T352 -18Q304 -18 267 -14T198 0T133 28T61 74L109 167Q147 143 178 128T240 103T306 91T386 87Q403 87 425 90T468 101T502 124T516 161Q516 177 509 186T490 202T464 210T438 213Q399 215 361 215T283 217Q247 218 213 228T153 257T110 306T94 376Q94 425 117 456T176 504T255 528T337 535Q409 535 466 518T587 467L540 375Q484 404 430 418T312 432Q298 432 279 430T241 421T211 403T198 372Q198 356 208 347T232 332T262 324T290 322Q324 320 357 320T425 319Q464 317 499 308T562 280T605 231T621 156Z"  />
<glyph unicode="&#xE0;" horiz-adv-x="685" d="M540 0L488 109H185L133 0H15L266 518H404L658 0H540ZM336 417L236 212H436L336 417ZM341 580L236 702H353L433 580H341Z"  />
<glyph unicode="&#xE1;" horiz-adv-x="685" d="M540 0L488 109H185L133 0H15L266 518H404L658 0H540ZM336 417L236 212H436L336 417ZM318 580H227L307 702H424L318 580Z"  />
<glyph unicode="&#xE2;" horiz-adv-x="685" d="M540 0L488 109H185L133 0H15L266 518H404L658 0H540ZM336 417L236 212H436L336 417ZM388 580L328 652L274 580H186L274 704H387L477 580H388Z"  />
<glyph unicode="&#xE3;" horiz-adv-x="685" d="M540 0L488 109H185L133 0H15L266 518H404L658 0H540ZM336 417L236 212H436L336 417ZM502 693Q501 671 497 652T484 617T459 594T417 585Q391 585 369 589T328 598T295 607T269 611Q254 611 248 603T242 580H167Q167 630 186 659T260 688Q278 688 295 685T329 677T362 669T395 665Q410 665 419 670T428 693H502H502Z"  />
<glyph unicode="&#xE4;" horiz-adv-x="685" d="M540 0L488 109H185L133 0H15L266 518H404L658 0H540ZM336 417L236 212H436L336 417ZM378 593V690H470V593H378ZM197 593V690H289V593H197Z"  />
<glyph unicode="&#xE5;" horiz-adv-x="685" d="M540 0L488 109H185L133 0H15L266 518H404L658 0H540ZM336 417L236 212H436L336 417ZM445 687Q445 663 436 643T412 607T375 582T331 573Q307 573 287 582T250 606T225 642T216 687Q216 711 225 731T249 767T286 792T330 801Q354 801 374 792T411 768T436 732T445 687ZM380 687Q380 707 366 722T331 737Q310 737 295 723T280 687Q280 667 295 653T330 638Q350 638 364 652T379 687H380Z"  />
<glyph unicode="&#xE6;" horiz-adv-x="1018" d="M487 0V109H233L140 0H24L475 518H945V414H590V319H778V216H590V104H957V0H487ZM487 409L321 212H487V409Z"  />
<glyph unicode="&#xE7;" horiz-adv-x="741" d="M679 64Q647 44 623 31T574 8T521 -6T456 -15L416 -69Q435 -69 453 -72T486 -83T509 -107T518 -145Q518 -176 505 -195T470 -225T424 -240T373 -244Q340 -244 318 -238T268 -214L292 -159Q312 -171 332 -175T376 -180Q384 -180 393 -179T411 -173T424 -163T430 -146Q430 -129 415 -121T385 -113Q363 -113 339 -121L319 -94L376 -15Q320 -10 269 9T180 62T119 143T96 252Q96 317 121 369T188 458T287 515T405 535Q447 535 481 529T547 510T607 478T670 435L609 344Q562 385 514 407T403 429Q366 429 330 417T265 383T218 329T200 257Q200 215 218 184T267 131T334 98T408 87Q445 87 473 91T526 103T577 126T632 160L679 64H679Z"  />
<glyph unicode="&#xE8;" horiz-adv-x="685" d="M154 0V518H612V414H256V319H444V216H256V104H624V0H154ZM371 580L266 702H383L463 580H371Z"  />
<glyph unicode="&#xE9;" horiz-adv-x="685" d="M154 0V518H612V414H256V319H444V216H256V104H624V0H154ZM398 580H307L387 702H504L398 580Z"  />
<glyph unicode="&#xEA;" horiz-adv-x="685" d="M154 0V518H612V414H256V319H444V216H256V104H624V0H154ZM436 580L376 652L322 580H234L322 704H435L525 580H436Z"  />
<glyph unicode="&#xEB;" horiz-adv-x="685" d="M154 0V518H612V414H256V319H444V216H256V104H624V0H154ZM429 593V690H521V593H429ZM248 593V690H340V593H248Z"  />
<glyph unicode="&#xEC;" horiz-adv-x="389" d="M144 0V518H246V0H144ZM182 580L77 702H194L274 580H182Z"  />
<glyph unicode="&#xED;" horiz-adv-x="389" d="M144 0V518H246V0H144ZM208 580H117L197 702H314L208 580Z"  />
<glyph unicode="&#xEE;" horiz-adv-x="389" d="M144 0V518H246V0H144ZM252 580L192 652L138 580H50L138 704H251L341 580H252Z"  />
<glyph unicode="&#xEF;" horiz-adv-x="389" d="M144 0V518H246V0H144ZM239 593V690H331V593H239ZM58 593V690H150V593H58Z"  />
<glyph unicode="&#xF0;" horiz-adv-x="759" d="M694 263Q694 205 673 152T609 59Q568 22 527 11T432 0H151V220H64V313H151V518H432Q456 518 475 517T513 513T550 501T589 479Q643 443 668 385T694 263ZM589 261Q589 337 548 375T432 414H259V313H419V220H259V104H432Q507 104 548 145T589 261Z"  />
<glyph unicode="&#xF1;" horiz-adv-x="796" d="M543 0L255 351V0H152V518H255L543 168V518H646V0H543ZM565 693Q564 671 560 652T547 617T522 594T480 585Q454 585 432 589T391 598T358 607T332 611Q317 611 311 603T305 580H230Q230 630 249 659T323 688Q341 688 358 685T392 677T425 669T458 665Q473 665 482 670T491 693H565H565Z"  />
<glyph unicode="&#xF2;" horiz-adv-x="833" d="M734 264Q734 198 707 146T636 58T533 2T414 -17Q353 -17 296 2T195 56T124 143T97 261Q97 327 124 378T195 464T297 517T415 535Q476 535 533 518T635 467T707 382T734 264ZM629 263Q629 306 610 337T561 389T492 419T416 429Q377 429 339 419T270 388T221 335T202 259Q202 215 221 183T271 130T340 99T417 89Q455 89 493 100T561 134T610 188T629 263ZM391 580L286 702H403L483 580H391Z"  />
<glyph unicode="&#xF3;" horiz-adv-x="833" d="M734 264Q734 198 707 146T636 58T533 2T414 -17Q353 -17 296 2T195 56T124 143T97 261Q97 327 124 378T195 464T297 517T415 535Q476 535 533 518T635 467T707 382T734 264ZM629 263Q629 306 610 337T561 389T492 419T416 429Q377 429 339 419T270 388T221 335T202 259Q202 215 221 183T271 130T340 99T417 89Q455 89 493 100T561 134T610 188T629 263ZM418 580H327L407 702H524L418 580Z"  />
<glyph unicode="&#xF4;" horiz-adv-x="833" d="M734 264Q734 198 707 146T636 58T533 2T414 -17Q353 -17 296 2T195 56T124 143T97 261Q97 327 124 378T195 464T297 517T415 535Q476 535 533 518T635 467T707 382T734 264ZM629 263Q629 306 610 337T561 389T492 419T416 429Q377 429 339 419T270 388T221 335T202 259Q202 215 221 183T271 130T340 99T417 89Q455 89 493 100T561 134T610 188T629 263ZM471 580L411 652L357 580H269L357 704H470L560 580H471Z"  />
<glyph unicode="&#xF5;" horiz-adv-x="833" d="M734 264Q734 198 707 146T636 58T533 2T414 -17Q353 -17 296 2T195 56T124 143T97 261Q97 327 124 378T195 464T297 517T415 535Q476 535 533 518T635 467T707 382T734 264ZM629 263Q629 306 610 337T561 389T492 419T416 429Q377 429 339 419T270 388T221 335T202 259Q202 215 221 183T271 130T340 99T417 89Q455 89 493 100T561 134T610 188T629 263ZM578 693Q577 671 573 652T560 617T535 594T493 585Q467 585 445 589T404 598T371 607T345 611Q330 611 324 603T318 580H243Q243 630 262 659T336 688Q354 688 371 685T405 677T438 669T471 665Q486 665 495 670T504 693H578H578Z"  />
<glyph unicode="&#xF6;" horiz-adv-x="833" d="M734 264Q734 198 707 146T636 58T533 2T414 -17Q353 -17 296 2T195 56T124 143T97 261Q97 327 124 378T195 464T297 517T415 535Q476 535 533 518T635 467T707 382T734 264ZM629 263Q629 306 610 337T561 389T492 419T416 429Q377 429 339 419T270 388T221 335T202 259Q202 215 221 183T271 130T340 99T417 89Q455 89 493 100T561 134T610 188T629 263ZM459 593V690H551V593H459ZM278 593V690H370V593H278Z"  />
<glyph unicode="&#xF7;" horiz-adv-x="889" d="M510 407Q510 379 491 360T445 341Q417 341 398 360T379 406Q379 434 398 453T444 472Q472 472 491 453T510 407ZM207 187V280H682V187H207ZM510 61Q510 33 491 14T445 -5Q417 -5 398 14T379 60Q379 88 398 107T444 126Q472 126 491 107T510 60V61Z"  />
<glyph unicode="&#xF8;" horiz-adv-x="833" d="M734 263Q734 198 707 146T636 58T534 3T415 -17Q390 -17 370 -16T332 -10T295 1T253 19L171 -74L113 -18L186 63Q166 81 150 104T122 153T104 207T97 262Q97 327 124 378T195 464T297 517T414 535Q439 535 459 534T497 528T535 518T577 501L652 584L710 528L647 458Q689 420 711 370T734 263ZM629 263Q629 297 615 326T576 378L329 103Q349 97 371 93T416 89Q455 89 493 100T561 133T610 187T629 263ZM502 415Q482 421 460 425T417 429Q379 429 341 419T271 389T221 337T202 261Q202 228 217 196T256 141L502 415Z"  />
<glyph unicode="&#xF9;" horiz-adv-x="796" d="M647 203Q647 162 641 130T608 65Q589 42 564 26T509 1T450 -13T391 -17Q337 -17 292 -4T215 36T165 104T147 203V518H250V203Q250 163 262 140T295 106T344 91T406 88Q430 88 457 93T506 111Q528 123 536 142T545 203V518H647V203H647ZM381 580L276 702H393L473 580H381Z"  />
<glyph unicode="&#xFA;" horiz-adv-x="796" d="M647 203Q647 162 641 130T608 65Q589 42 564 26T509 1T450 -13T391 -17Q337 -17 292 -4T215 36T165 104T147 203V518H250V203Q250 163 262 140T295 106T344 91T406 88Q430 88 457 93T506 111Q528 123 536 142T545 203V518H647V203H647ZM418 580H327L407 702H524L418 580Z"  />
<glyph unicode="&#xFB;" horiz-adv-x="796" d="M647 203Q647 162 641 130T608 65Q589 42 564 26T509 1T450 -13T391 -17Q337 -17 292 -4T215 36T165 104T147 203V518H250V203Q250 163 262 140T295 106T344 91T406 88Q430 88 457 93T506 111Q528 123 536 142T545 203V518H647V203H647ZM455 580L395 652L341 580H253L341 704H454L544 580H455Z"  />
<glyph unicode="&#xFC;" horiz-adv-x="796" d="M647 203Q647 162 641 130T608 65Q589 42 564 26T509 1T450 -13T391 -17Q337 -17 292 -4T215 36T165 104T147 203V518H250V203Q250 163 262 140T295 106T344 91T406 88Q430 88 457 93T506 111Q528 123 536 142T545 203V518H647V203H647ZM441 593V690H533V593H441ZM260 593V690H352V593H260Z"  />
<glyph unicode="&#xFD;" horiz-adv-x="574" d="M345 209V0H243V209L25 518H155L293 314L435 518H559L345 209ZM344 580H253L333 702H450L344 580Z"  />
<glyph unicode="&#xFE;" horiz-adv-x="704" d="M646 266Q646 233 635 202T600 146Q569 113 536 106T459 99H250V0H148V518H250V429H459Q486 429 504 428T537 423T564 412T590 393Q617 370 631 336T646 266ZM541 267Q541 286 534 297T516 315T490 324T459 326H250V202H459Q496 202 518 213T541 267Z"  />
<glyph unicode="&#xFF;" horiz-adv-x="574" d="M345 209V0H243V209L25 518H155L293 314L435 518H559L345 209ZM341 593V690H433V593H341ZM160 593V690H252V593H160Z"  />
<glyph unicode="&#x131;" horiz-adv-x="389" d="M144 0V518H246V0H144Z"  />
<glyph unicode="&#x152;" horiz-adv-x="1315" d="M630 0Q612 0 580 -9T500 -18Q413 -18 340 11T213 94T129 220T98 380Q98 467 129 538T214 661T343 740T505 768Q527 768 548 765T588 758T620 751T640 747H1228V637H723V442H977V334H723V109H1247V0H630ZM614 637Q582 649 557 653T498 658Q436 658 383 639T290 583T228 494T205 376Q205 310 227 258T288 169T382 112T500 92Q534 92 558 97T614 114V637Z"  />
<glyph unicode="&#x153;" horiz-adv-x="1036" d="M537 0Q523 0 491 -8T414 -17Q346 -17 288 2T188 56T121 143T97 260Q97 329 121 380T190 465T295 516T428 533Q465 533 490 526T538 518H963V414H607V319H795V216H607V104H975V0H537ZM511 419Q490 424 469 426T427 429Q379 429 339 420T269 391T223 339T206 260Q206 214 223 182T269 129T339 99T427 89Q469 89 511 100V419Z"  />
<glyph unicode="&#x160;" horiz-adv-x="833" d="M772 218Q772 150 738 105T651 33T536 -5T419 -17Q305 -17 216 18T46 136L122 209Q158 176 193 154T265 118T344 99T434 93Q465 93 505 98T580 119T640 160T665 227Q665 255 652 276T615 312Q600 321 585 326T549 335T499 339T429 341L317 343Q273 344 233 356T163 391T114 450T95 534Q95 575 110 609T152 670T211 716T281 747Q313 757 345 761T410 766Q495 766 573 741T720 664L659 577Q629 596 602 610T548 635T490 650T424 655Q397 655 359 650T287 632T229 595T205 535Q205 508 216 491T246 465T286 452T331 449H442Q473 449 501 448T557 443T612 430T667 404Q718 374 745 326T772 218ZM487 813H374L285 937H372L426 865L486 937H576L487 813Z"  />
<glyph unicode="&#x161;" horiz-adv-x="685" d="M621 156Q621 102 595 68T529 15T442 -11T352 -18Q304 -18 267 -14T198 0T133 28T61 74L109 167Q147 143 178 128T240 103T306 91T386 87Q403 87 425 90T468 101T502 124T516 161Q516 177 509 186T490 202T464 210T438 213Q399 215 361 215T283 217Q247 218 213 228T153 257T110 306T94 376Q94 425 117 456T176 504T255 528T337 535Q409 535 466 518T587 467L540 375Q484 404 430 418T312 432Q298 432 279 430T241 421T211 403T198 372Q198 356 208 347T232 332T262 324T290 322Q324 320 357 320T425 319Q464 317 499 308T562 280T605 231T621 156ZM395 580H282L193 704H280L334 632L394 704H484L395 580Z"  />
<glyph unicode="&#x178;" horiz-adv-x="759" d="M435 323V0H327V323L24 746H155L383 430L608 746H743L435 323ZM423 826V923H515V826H423ZM242 826V923H334V826H242Z"  />
<glyph unicode="&#x17D;" horiz-adv-x="704" d="M57 0L22 75L498 636H64V746H633L672 672L194 111H678V0H57ZM411 813H298L209 937H296L350 865L410 937H500L411 813Z"  />
<glyph unicode="&#x17E;" horiz-adv-x="537" d="M52 0L16 67L337 414H52V518H475L521 448L198 104H521V0H52ZM326 580H213L124 704H211L265 632L325 704H415L326 580Z"  />
<glyph unicode="&#x192;" horiz-adv-x="704" d="M575 574Q560 576 546 577T516 578Q472 578 443 561T407 497L402 464H551L541 382H390L352 114Q346 73 337 25T311 -61Q286 -115 242 -132T142 -149Q121 -149 101 -148T59 -146L78 -56Q96 -57 114 -57T150 -58Q163 -58 175 -56T199 -46Q214 -37 223 -16T239 31T248 80T254 122L290 382H147L163 464H301L311 529Q317 567 334 593T375 636T431 660T499 668Q544 668 591 662L575 574Z"  />
<glyph unicode="&#x2C6;" horiz-adv-x="389" d="M251 573L191 645L137 573H49L137 697H250L340 573H251Z"  />
<glyph unicode="&#x2C7;" horiz-adv-x="389" d="M251 573H138L49 697H136L190 625L250 697H340L251 573Z"  />
<glyph unicode="&#x2DA;" horiz-adv-x="389" d="M309 687Q309 663 300 643T276 607T239 582T195 573Q171 573 151 582T114 606T89 642T80 687Q80 711 89 731T113 767T150 792T194 801Q218 801 238 792T275 768T300 732T309 687ZM244 687Q244 707 230 722T195 737Q174 737 159 723T144 687Q144 667 159 653T194 638Q214 638 228 652T243 687H244Z"  />
<glyph unicode="&#x2DC;" horiz-adv-x="389" d="M362 686Q361 664 357 645T344 610T319 587T277 578Q251 578 229 582T188 591T155 600T129 604Q114 604 108 596T102 573H27Q27 623 46 652T120 681Q138 681 155 678T189 670T222 662T255 658Q270 658 279 663T288 686H362H362Z"  />
<glyph unicode="&#x2013;" horiz-adv-x="370" d="M-9 212V307H380V212H-9Z"  />
<glyph unicode="&#x2014;" horiz-adv-x="1000" d="M-9 212V307H1009V212H-9Z"  />
<glyph unicode="&#x2018;" horiz-adv-x="407" d="M261 535Q261 509 241 491T197 473Q175 473 158 483T128 509T110 546T104 587Q104 619 113 645T137 691T168 727T198 754Q203 758 213 763T228 769Q238 769 245 763T252 743Q252 733 248 727T237 716Q216 703 198 680T179 630Q179 619 183 612T199 604Q228 604 244 585T261 535Z"  />
<glyph unicode="&#x2019;" horiz-adv-x="407" d="M306 656Q306 624 297 598T273 551T243 515T213 488Q208 485 198 479T183 473Q173 473 166 479T159 499Q159 510 163 516T174 527Q195 540 213 563T232 613Q232 624 228 631T212 639Q183 639 166 658T149 708Q149 734 169 751T214 769Q236 769 253 759T282 733T300 697T306 656Z"  />
<glyph unicode="&#x201A;" horiz-adv-x="407" d="M306 2Q306 -30 297 -56T273 -103T243 -139T213 -166Q208 -169 198 -175T183 -181Q173 -181 166 -175T159 -155Q159 -144 163 -138T174 -127Q195 -114 213 -91T232 -41Q232 -30 228 -23T212 -15Q183 -15 166 4T149 54Q149 80 169 97T214 115Q236 115 253 105T282 79T300 43T306 2Z"  />
<glyph unicode="&#x201C;" horiz-adv-x="667" d="M526 535Q526 509 506 491T462 473Q440 473 423 483T393 509T375 546T369 587Q369 619 378 645T402 691T433 727T463 754Q468 758 478 763T493 769Q503 769 510 763T517 743Q517 733 513 727T502 716Q481 703 463 680T444 630Q444 619 448 612T464 604Q493 604 509 585T526 535ZM306 535Q306 509 286 491T242 473Q220 473 203 483T173 509T155 546T149 587Q149 619 158 645T182 691T213 727T243 754Q248 758 258 763T273 769Q283 769 290 763T297 743Q297 733 293 727T282 716Q261 703 243 680T224 630Q224 619 228 612T244 604Q273 604 289 585T306 535Z"  />
<glyph unicode="&#x201D;" horiz-adv-x="667" d="M526 656Q526 624 517 598T493 551T463 515T433 488Q428 485 418 479T403 473Q393 473 386 479T379 499Q379 510 383 516T394 527Q415 540 433 563T452 613Q452 624 448 631T432 639Q403 639 386 658T369 708Q369 734 389 751T434 769Q456 769 473 759T502 733T520 697T526 656ZM306 656Q306 624 297 598T273 551T243 515T213 488Q208 485 198 479T183 473Q173 473 166 479T159 499Q159 510 163 516T174 527Q195 540 213 563T232 613Q232 624 228 631T212 639Q183 639 166 658T149 708Q149 734 169 751T214 769Q236 769 253 759T282 733T300 697T306 656Z"  />
<glyph unicode="&#x201E;" horiz-adv-x="667" d="M526 2Q526 -30 517 -56T493 -103T463 -139T433 -166Q428 -169 418 -175T403 -181Q393 -181 386 -175T379 -155Q379 -144 383 -138T394 -127Q415 -114 433 -91T452 -41Q452 -30 448 -23T432 -15Q403 -15 386 4T369 54Q369 80 389 97T434 115Q456 115 473 105T502 79T520 43T526 2ZM306 2Q306 -30 297 -56T273 -103T243 -139T213 -166Q208 -169 198 -175T183 -181Q173 -181 166 -175T159 -155Q159 -144 163 -138T174 -127Q195 -114 213 -91T232 -41Q232 -30 228 -23T212 -15Q183 -15 166 4T149 54Q149 80 169 97T214 115Q236 115 253 105T282 79T300 43T306 2Z"  />
<glyph unicode="&#x2020;" horiz-adv-x="593" d="M346 448V0H247V448H58V542H247V745H346V542H534V448H346Z"  />
<glyph unicode="&#x2021;" horiz-adv-x="593" d="M346 191V0H247V191H58V285H247V464H58V558H247V745H346V558H534V464H346V285H534V191H346Z"  />
<glyph unicode="&#x2022;" horiz-adv-x="500" d="M387 372Q387 344 377 320T348 277T304 248T251 237Q223 237 198 247T155 276T126 319T115 372Q115 400 125 425T154 468T198 498T251 509Q279 509 304 498T347 469T376 425T387 372Z"  />
<glyph unicode="&#x2026;" horiz-adv-x="1112" d="M997 55Q997 26 977 5T927 -17Q897 -17 877 4T857 55Q857 84 877 105T927 127Q957 127 977 106T997 55ZM626 55Q626 26 606 5T556 -17Q526 -17 506 4T486 55Q486 84 506 105T556 127Q586 127 606 106T626 55ZM255 55Q255 26 235 5T185 -17Q155 -17 135 4T115 55Q115 84 135 105T185 127Q215 127 235 106T255 55Z"  />
<glyph unicode="&#x2030;" horiz-adv-x="1796" d="M1734 190Q1734 138 1713 99T1656 34T1576 -6T1483 -19Q1437 -19 1394 -5T1318 35T1264 100T1243 188Q1243 241 1263 280T1317 346T1395 386T1489 399Q1535 399 1579 385T1658 345T1713 279T1734 190ZM1184 190Q1184 138 1163 99T1106 34T1026 -6T933 -19Q887 -19 844 -5T768 35T714 100T693 188Q693 241 713 280T767 346T845 386T939 399Q985 399 1029 385T1107 345T1162 279T1183 190H1184ZM400 -40H304L855 718H952L400 -40ZM549 459Q549 406 528 367T471 302T390 263T297 250Q251 250 208 264T132 304T78 369T57 457Q57 510 77 549T131 615T209 655T303 668Q349 668 393 655T472 615T528 549T549 459ZM1633 192Q1633 219 1621 240T1589 277T1544 301T1492 309Q1465 309 1439 301T1391 278T1358 240T1345 189Q1345 162 1357 140T1390 103T1437 79T1490 70Q1517 70 1543 78T1589 103T1621 141T1633 192ZM1083 192Q1083 219 1071 240T1039 277T994 301T942 309Q915 309 889 301T841 278T808 240T795 189Q795 162 807 140T840 103T887 79T940 70Q967 70 993 78T1038 103T1070 141T1082 192H1083ZM447 461Q447 488 435 509T403 546T358 570T306 578Q279 578 253 570T205 547T172 509T159 458Q159 431 171 409T204 372T251 348T304 339Q331 339 357 347T402 372T434 410T446 461H447Z"  />
<glyph unicode="&#x2039;" horiz-adv-x="352" d="M193 67L59 263L193 456H293L178 263L293 67H193Z"  />
<glyph unicode="&#x203A;" horiz-adv-x="352" d="M159 67H59L174 263L59 456H159L293 263L159 67Z"  />
<glyph unicode="&#x20AC;" horiz-adv-x="889" d="M849 118Q810 81 773 55T696 13T612 -11T517 -19Q455 -19 399 -4T296 41T214 112T160 207H59L73 279H143Q140 300 140 324V346H58L73 419H152Q168 475 201 521T280 600T384 651T506 669Q600 669 684 636T840 530L768 463Q705 516 642 543T502 571Q461 571 424 560T355 529T299 481T261 419H642L628 346H243Q242 341 242 336T242 326Q242 314 243 302T246 279H615L601 207H273Q308 146 374 113T521 80Q598 80 659 106T780 193L849 118H849Z"  />
<glyph unicode="&#x2122;" horiz-adv-x="722" d="M599 457V621L508 471L417 620V457H344V746H409L508 578L609 746H672V457H599ZM213 680V457H139V680H42V746H308V680H213Z"  />


</font>
</defs>
</svg>
